<?xml version="1.0" standalone="no"?>
<!DOCTYPE svg PUBLIC "-//W3C//DTD SVG 1.1//EN" "http://www.w3.org/Graphics/SVG/1.1/DTD/svg11.dtd" >
<svg xmlns="http://www.w3.org/2000/svg" xmlns:xlink="http://www.w3.org/1999/xlink" version="1.1">
<metadata>
Created by FontForge 20181014 at Wed Nov 23 18:46:00 2011
 By convertio
Copyright Gene Buban 2008
</metadata>
<defs>
<font id="HulkSmash" horiz-adv-x="1568" >
  <font-face 
    font-family="HulkSmash"
    font-weight="400"
    font-stretch="normal"
    units-per-em="1024"
    panose-1="0 0 4 0 0 0 0 0 0 0"
    ascent="819"
    descent="-205"
    x-height="768"
    cap-height="832"
    bbox="-32 -128 2016 864"
    underline-thickness="51"
    underline-position="77"
    unicode-range="U+0020-007C"
  />
<missing-glyph horiz-adv-x="1312" 
d="M384 109v122h-123v-122h123zM506 251v123h-245v-123h245zM384 393v123h-123v-123h123zM506 536v122h-122q-51 0 -87 -36t-36 -86h245zM0 0v768h768v-768h-768z" />
    <glyph glyph-name=".notdef" horiz-adv-x="1312" 
d="M384 109v122h-123v-122h123zM506 251v123h-245v-123h245zM384 393v123h-123v-123h123zM506 536v122h-122q-51 0 -87 -36t-36 -86h245zM0 0v768h768v-768h-768z" />
    <glyph glyph-name="glyph1" horiz-adv-x="32" 
 />
    <glyph glyph-name="glyph2" horiz-adv-x="736" 
 />
    <glyph glyph-name="space" unicode=" " horiz-adv-x="736" 
 />
    <glyph glyph-name="exclam" unicode="!" horiz-adv-x="1120" 
d="M0 -32v256h512v-256h-512zM576 0v256h512v-256h-512zM0 288v512h512v-512h-512zM576 320v512h512v-512h-512z" />
    <glyph glyph-name="comma" unicode="," horiz-adv-x="576" 
d="M288 0l32 64l-32 64l64 128h192v-256h-256zM0 0v256h224l64 32l32 -32l-64 -128l32 -64l-32 -64h-256z" />
    <glyph glyph-name="period" unicode="." horiz-adv-x="544" 
d="M0 0v256h512v-256h-512z" />
    <glyph glyph-name="slash" unicode="/" 
d="M768 -32v32h-256v256h192l96 -96h32v32h-32l-32 32l32 32h224v-192h-256l64 -32h192v-64h-256zM768 256l-32 32h64l-32 -32v0zM512 320v96l64 32h128v-64l32 -32l-32 -32h-192zM736 384v64h64l-32 -64h-32zM736 512l64 64v-64h-64zM0 416v256l128 64h544l32 -64v96h256
l-256 -256v-32h-160l-32 -16v-48h-512zM768 320l64 128h160l32 16v32l-32 16h-160v64l64 64h-32l64 64h32l64 64h384l128 -64v-320l-128 -64h-640z" />
    <glyph glyph-name="zero" unicode="0" 
d="M992 256l32 16v224l-32 16h-448l-32 -16v-224l32 -16h448zM128 0l-128 64v640l128 64h1280l128 -64v-640l-128 -64h-1280z" />
    <glyph glyph-name="one" unicode="1" horiz-adv-x="640" 
d="M96 0v576l-128 64l128 128h512v-768h-512z" />
    <glyph glyph-name="two" unicode="2" 
d="M0 0v416l64 32h928l32 16v32l-32 16h-992v256h1472l64 -32v-384l-64 -32h-928l-32 -16v-32l32 -16h992v-256h-1536z" />
    <glyph glyph-name="three" unicode="3" 
d="M0 0v256h992l32 16v32l-32 16h-992v128h992l32 16v32l-32 16h-992v256h1472l64 -32v-320l-64 -32l64 -32v-320l-64 -32h-1472z" />
    <glyph glyph-name="four" unicode="4" 
d="M1024 0v256h-960l-64 32v480h512v-256h512v256h512v-768h-512z" />
    <glyph glyph-name="five" unicode="5" 
d="M0 0v256h992l32 16v32l-32 16h-992v448h1536v-256h-1024v-48l32 -16h928l64 -32v-384l-64 -32h-1472z" />
    <glyph glyph-name="six" unicode="6" 
d="M992 256l32 16v32l-32 16h-480v-48l32 -16h448zM64 0l-64 32v704l64 32h1472v-256h-992l-32 -16v-48h960l64 -32v-384l-64 -32h-1408z" />
    <glyph glyph-name="seven" unicode="7" 
d="M512 0v256l512 256h-1024v256h1536v-256l-512 -256v-256h-512z" />
    <glyph glyph-name="eight" unicode="8" 
d="M992 256l32 16v32l-32 16h-448l-32 -16v-32l32 -16h448zM992 448l32 16v32l-32 16h-448l-32 -16v-32l32 -16h448zM64 0l-64 32v320l64 32l-64 32v320l64 32h1408l64 -32v-320l-64 -32l64 -32v-320l-64 -32h-1408z" />
    <glyph glyph-name="nine" unicode="9" 
d="M1024 448v48l-32 16h-448l-32 -16v-32l32 -16h480zM0 0v256h992l32 16v48h-960l-64 32v384l64 32h1408l64 -32v-704l-64 -32h-1472z" />
    <glyph glyph-name="question" unicode="?" 
d="M512 0v256h512v-256h-512zM512 320v96l64 32h416l32 16v32l-32 16h-448l-32 -16v-48h-512v256l128 64h1280l128 -64v-320l-128 -64h-896z" />
    <glyph glyph-name="at" unicode="@" horiz-adv-x="1248" 
d="M1120 0l32 64h32v-64h-64zM352 -32v160l-32 -64v-64h-320v256h512v-160h32v-128h-192zM640 0v256h224v-64l-32 -64l-128 -64h64l64 32l32 32l32 -64v192h256v-128l-64 -128h-448zM352 288v32l96 48v16l64 32v-128h-160zM1056 384v64l-32 32l-64 32v-32l-32 16v-16l-32 16
v-16l64 -32v32l64 -32v-64h32zM0 416v320h32v32h224l64 32h32l-128 -256l32 -64h-32l-128 -64h-96zM32 288v96h64l192 96l-32 64l96 192v32h16l16 32h192l-64 -128v-224l-64 -32h32l-128 -64l-32 -32h-32v-32h-256zM640 320v192l32 64h-32v192h96v-128l32 64v64h32l32 64
l64 -32h64l64 -32l32 32l32 -32l128 -64l-96 -192h-32v-64l-32 -64h32v-64h-448z" />
    <glyph glyph-name="A" unicode="A" horiz-adv-x="1632" 
d="M544 0l64 32l32 -32h-96zM1280 0v32l64 -32h-64zM864 -32l32 32h32v32l42 21l22 43v-128h-128zM896 128v32l64 -32h-64zM1024 -32v128h32l-32 32l64 32h-32l64 32l-64 32h64l64 -64h-16l16 -32v-32l64 -32v-32l32 -64h-256zM0 0v512l64 64l64 -32l32 -64v-96l32 64
l64 -32l32 32l32 -64l256 -128h32l32 -64h-128v-192h-512zM608 512l-64 32l64 32l32 -64h-32zM64 576l32 64v-64h-32zM1376 0l-32 32l-64 32l-64 64l-32 64h32l-64 64l128 256l64 32v32l64 64l128 -128v-512h-160zM992 128v64l-16 32h-16v-64l-64 32v32l-64 -32h-96v-32
l-64 32l-32 64l-256 128h-32l-32 64l96 48v16l64 32h32l64 -32l-64 -64h96v32l64 -32h352l-64 64h-256v-32h-32l-32 64h16l-16 32v32l-64 -32v16l-32 -16h-32l-256 -128l-64 32l-32 64h32l-64 32v32h32v32l128 128h960l96 -96h32v-32l-32 -16v-16l-64 -32h32v-32l-64 -32
l-128 -256h-32l-64 -32l64 -32h-64l-32 -64v0z" />
    <glyph glyph-name="B" unicode="B" horiz-adv-x="1632" 
d="M928 -32l64 32l64 128l160 -160h-288zM0 352l-32 32l32 64v32l64 -32l32 -64l-64 -32v32l-32 -32v0zM0 0v320l64 32v-16l32 16l32 -32l32 -64v64l64 64l32 -32l16 -32h16v-64l16 32h-16l32 64l32 32l32 64l64 32l32 32l32 -32v-32h480l32 16v32l-32 16h-32l64 64l128 -64
l64 -64v64l64 32l64 -32h64l64 -32h64v-64l-64 -32l64 -32v-288l-128 -64h-192l-128 128l-128 64l-32 64h64l32 16v32l-32 16h-480v-64h320l32 32l32 -32l32 -64l-32 -64v-32l32 64h32l64 -32l-64 -128h-960zM1504 512l32 64l32 -32l-32 -32h-32zM1184 512l-32 32l-64 32
l-32 32l32 32l64 32l32 32l32 16v16h192l128 -64v-64l-32 -32l-32 -64l-64 32h-64l-64 32l-64 -32l-32 -32v0zM160 352l-32 32l-32 64v96l-32 -64l-64 32v256h1184l-32 -64l-64 -32l-128 -128l-64 -32l-32 -32l-32 32h-320l-32 32l-32 -32l-64 -32l-32 -32l-32 -64h-16
l-16 -32l-16 32h-16l-64 64v-64l-32 -32v0zM1216 768v32l64 -32h-64z" />
    <glyph glyph-name="C" unicode="C" horiz-adv-x="1632" 
d="M0 256v64h32l-32 -64v0zM64 0l-64 32v192h16l48 96h32l32 32l16 -32h16l32 -64h32l-32 -64l64 -128v32l64 -32l64 -64h-320zM416 0l-96 96l-64 32l-32 64l32 64l32 -32l32 32l64 32v-32l64 128l64 32v-144l32 -16h992v-256h-1088v32l-32 32v-64v0zM896 448l-64 32h32
l64 32v-64h-32zM288 256l-32 32h-64l-32 64l-32 32l-32 -32h-32l-64 -32v416l64 32h352l32 32l64 -128h-16l48 -96l-32 -32l-64 32l-64 128v-32l-64 32l-64 -32h64l64 -32l32 -64h-32l128 -64l64 32l64 -32l-64 -32v32h-32l-32 -16v-48l-128 -64h32l-32 -64l-64 -32l-32 -32
v0zM1440 288l-384 192v-32h32v-32l-64 32h-32v16l-32 16v32h-32v32l-64 -32h-160l-128 64l-96 192h192l64 32v-32l32 -32h32v64l64 -64v32l64 -64h32l-32 -64v-64l64 128h16l48 96l320 -160v-32h64l128 -64l-128 -256v0z" />
    <glyph glyph-name="D" unicode="D" horiz-adv-x="1600" 
d="M320 -32l32 64l32 -64h-64zM512 320l-32 32l64 32v-32l-32 -32v0zM1408 416l128 64l32 -32h-32l-64 -32h-64zM0 -32v416l32 32l64 128l64 32l32 -32l192 -96h128v-64l-64 -32v-64h-16l-80 -160l-64 -32h64l-64 -128h-288zM-32 352v192l32 16v112l128 -64v-32l-64 -32
l-96 -192v0zM384 0l-32 64l128 256v-64h512l32 16v112l-32 32l32 32l320 160v32l64 32h-64l-32 -64h-32l-256 -128v32h-576l64 -32h-128l-192 96l-64 64l-64 32l-32 32v64h1312v32l192 -96v-192l-320 -160h64l64 32h128l64 32v-352l-128 -64h-896l-64 32v-32h-64z" />
    <glyph glyph-name="E" unicode="E" 
d="M576 -64l64 64v32l64 64h64l32 -64l-32 -64h-128v-32h-64zM800 -32l32 64l-32 64l-64 32h32l64 64v-32l64 64h640v-256h-736zM832 192l32 64h32l-32 -64h-32zM992 608l-32 32v-32h32zM896 672l-64 32v32h96l-32 -64v0zM960 480l-32 64h32l-32 64h16l-16 32l64 32h-64
l32 64h576v-256h-576zM384 704l-32 64h64l-32 -64v0zM0 0v544l64 -32l32 -64l32 -16v16l10 -22l22 -10v-32l32 -64h32l64 32h-96v32l-32 64h32l64 32h-64l-64 -32l-32 64h32l-128 64v192h320l32 -64l32 -32l-32 -32l-32 -64v32l-64 -32h64v-64l128 256h320l32 -64l32 -32
l64 -32l32 -64l-32 -64h-384v-64h384v-96l32 64h576v-128h-640v96l-32 -64h-320v-64h320l-32 -32v-32l-64 -64l-32 64v-64l-128 -128h-576zM800 736v64h32l-32 -64v0z" />
    <glyph glyph-name="F" unicode="F" horiz-adv-x="1600" 
d="M576 0l32 32v32l32 -64h-64zM1088 0l64 32v32h32l16 -32h16v-32h-128zM1280 0v64h64l64 -64h-128zM1024 256l-64 32h96v-32h-32zM1120 384l-32 32l-64 32h128l-32 -64v0zM0 160v576h352l-32 -64h-32l-32 -16v-48l-96 -192v-64l-32 -64l-64 -64l-43 -22l-21 -42v0z
M992 480v32l-32 64l-64 64h-32l-128 64v64l64 -32h768v-256h-576zM32 0v160l64 32v32l64 64l32 64v-32l32 -32l160 -80v16l64 -32h32l-128 64h-32l-32 32l-64 32v32l-32 64l96 192l64 -32h32l-64 32v16l-32 16l64 32l64 128l64 -32h192l32 -64v-64l32 -64v96l64 -32h64
l32 -64h32l32 -64h-416v-64h448l64 -64v-64h32v64h64v32l128 -64l-64 -128l-192 96h-480v-160l32 -32l-32 -32l-64 32l64 -64v-64h-512zM704 768l-64 32h64v-32v0z" />
    <glyph glyph-name="G" unicode="G" horiz-adv-x="1664" 
d="M256 64l-64 32h64l64 -32h-64zM992 -32v96l32 64v-128h-16l-16 -32v0zM96 -32l-64 32v160l128 -64l64 -64h96l64 -32v-16l32 -16h-320zM1056 -32v224h64l-320 160l64 128l128 -64v-128l32 64l64 -64h160l64 -32v-32h96l-64 32l-32 32l-64 32h32l32 32h-32l-64 -32h-128
l-64 64v64h64l64 -32h416v-64l-32 -32v-64l32 -32v-256h-512zM416 0v16l-96 48h32l-128 64h-64l-128 64v448h64l128 -64h64l16 -32h16l32 -32l64 -32v-16l32 -16v-32h128l-32 -64v-80l32 -16h384v-32l64 -32v-32l-64 -64l-64 -32h64v-64h-544zM224 608l-64 32l64 32l64 -64
h-64zM480 448l-64 64l-64 32v32l-128 128v64h864l32 -64v32h320v-32l64 32l96 -96l-32 -64v-96h-448v96l-32 -64h-512l-32 -16v-48h-64zM128 640l-32 32h-96v96l64 32h64l12 -26l52 26v-128l-64 -32v0zM1120 768v32l64 -32h-64zM160 800l-64 32h64v-32v0z" />
    <glyph glyph-name="H" unicode="H" horiz-adv-x="1632" 
d="M736 -32l64 32v-32h-64zM800 -32l64 64v-32l64 -32h-128zM832 192l-32 64h32l32 -64h-32zM128 0l64 128l128 64l96 96l96 -96v-192h-384zM0 -32v416l64 32l256 -128h64l-64 -64l-96 -48v-16l-64 -32l-64 -128v-32h-96zM1056 -32v256h-128l-64 32v32h-64l64 128l128 64h64
v96l64 -32l64 32l64 -32l32 -64l64 -32l32 -32l128 -256l64 -32v-160h-512zM1056 576v64l32 -64h-32zM512 224l-16 32h-16l-32 64v-32l-64 32h-64l-256 128h-32v320h512v-256h320v-32l64 32v-32l-64 -32l-32 -32l-48 -96h16l-32 -64h-224v-32h-32zM1024 704v32l-64 32h96
l-32 -64v0zM1568 160l-64 32v32l-96 192h64l-128 64h-32l-32 64l-32 32l-64 32l-64 -32l-64 128l64 64v-32h480v-576h-32z" />
    <glyph glyph-name="I" unicode="I" horiz-adv-x="704" 
d="M64 -32v448h64l112 -56l112 56l32 -64l128 -64l64 32v-320h-160l-32 64v-96h-320zM512 320l-64 32h-32l-32 64v32l64 -32l64 32l64 -32l32 -64h-32v-32h-64zM224 384v32h-32l-64 32v32h16l16 32l-32 64v-64l-32 -64l-64 -32v160l-64 128l128 64h32l32 -64h32l32 -64
l-32 -64l32 -64v64l48 96h-16l32 64h32v32l128 -64h32v-16l160 -80l-64 -128v-32l-64 32l-64 -32l-48 24l-176 -88v0zM288 768l-64 32h64v-32v0zM224 672v32l-32 64h-32l-32 64h32l64 -64l64 -32l-64 -64v0z" />
    <glyph glyph-name="J" unicode="J" horiz-adv-x="1056" 
d="M0 -32v256h256l32 -64h32v-64h-16l-48 -96v-32h-256zM288 192v64h64l-32 -64h-32zM224 256v32h64l-64 -32v0zM448 384v32h64l-64 -32v0zM288 0l64 128v64l32 64h96l32 16v112h32l192 96l64 -32l128 64h96v-480l-64 -32h-672zM544 416l-64 32v352h512v-256h-64l-128 -64
l-32 32h32l64 64l-320 -160v0z" />
    <glyph glyph-name="K" unicode="K" horiz-adv-x="1632" 
d="M672 -32v64h64v-32l64 -32h-128zM32 0v224l64 32l64 64v32l192 96h64l128 64v-64h128l128 -256v-32l-64 32h-32v128l-32 64v-224l-64 32h-64v-192h-512zM544 544v64h64v-32l-64 -32v0zM0 256v480h512v-192l-32 -16v-16l-64 -32h-64v64l-32 -64l-64 -32v-32h-64l-64 -32
v-64l-128 -64v0zM1120 768l64 32v-32h-64zM1056 -32v176l-32 16h-160l-16 32h-16l-80 160h-16v64l320 320h128v-64l-64 -64h-64l64 -32v-32l64 64l96 192l320 -160l-256 -128l-96 96v64l-32 -64l32 -64l64 -32v-32l-64 -64h256l64 -32v-416h-512z" />
    <glyph glyph-name="L" unicode="L" horiz-adv-x="1248" 
d="M352 -32l64 32v32l192 96v32l64 32l64 -64v-96l32 64v32h32l64 -64h-32l96 -96h-576zM960 0l-182 181l-42 -21v32h-32l-64 64h576v-256h-256zM576 288v32l64 -32h-64zM0 0v576h64l32 -32h32l16 -32h112l64 -64h32l32 -64l128 -128h96l16 -32h16v-32l-64 -32v-32h-32
l-64 -32v16l-32 -16v-32h-32l-32 -16v-48h-384zM544 288l-96 96h-32l-32 64l-32 32l-64 32h32l32 32h64l-64 32l-64 -32h-128l-64 64h-64v160h384v-96l32 64h160l-32 -64h-32v-384v0z" />
    <glyph glyph-name="M" unicode="M" horiz-adv-x="1728" 
d="M640 32l48 24l-16 8h64v-32l-32 16v-16h-64zM672 -32v32l38 -19l26 51h16l16 32v-96h-96zM1664 160l-64 32l64 32v-64v0zM1152 0v256l64 32h96l64 32h32l32 -64h32l-64 -32h64l64 -32l64 -64v32l64 -32v-128h-512zM0 256v160l64 -32l-64 -128v0zM704 288l-32 64l32 64
l64 32h32l-64 -128v-32h-32zM0 -32v224l64 128v32l96 48v16l16 -8l16 8v-16l32 -16l-32 -64h-64l64 -32l32 32l32 64h32l-32 32l32 32l32 64l64 32l256 -128h32l-32 -64l32 -64l32 -32l32 -64l-8 -16l8 -16h-16l-16 -32l-192 192v-352h-512zM640 448l-64 32l128 64l64 -32
v-64h-128zM800 512l-64 32h64v-32v0zM736 576l-32 64h32v-64v0zM800 -32v64l-64 64h-32l64 32h-32l24 48l-24 48h16l-16 32l96 192v-32l256 256h-32l64 64v-64h32l32 -64l-32 -64l-64 -32h128v32l64 -32l32 -64l32 -32l32 -64l-32 -16v-16l-64 -32l-64 32l-64 -32l-192 -192
h32l-32 -32v-64h-64l-32 -32h-64zM96 384l-32 32l-64 32v320h512l192 -192l-128 -64l-32 -32l-32 32l-128 64l-64 -32l-64 32l32 -64l-32 -64l-32 -32l-48 24l-48 -24l-32 -32v0zM1568 192v32h-32l-64 32l-32 64l-32 32l-32 64l-32 32l-32 64h96l-64 32h-96v16l-32 16v-32
h-32l32 64l-32 64l-32 32v96h512v-512l32 -32l-128 -64v0z" />
    <glyph glyph-name="N" unicode="N" horiz-adv-x="1600" 
d="M1312 -32l64 64h-32l128 128v-32l32 32v32h64v-224h-256zM32 -32v96l64 64l128 64h-64l-64 -32v96l-32 -32v-64l-64 -64v352h64l64 32l32 32h320l-16 -32h16l32 -64v-64h32l64 32v-16l96 48v-32l-32 -32l-64 -128h-32l-64 64v-64h-64l-128 -64h64l64 32h96v-224h-512z
M544 384v32l-64 128h-160l-32 64l-32 32h-64l64 -32l32 -64h-224l64 -32l-64 -32h-64v256h352l-32 32h352l224 -224l-320 -160v16l-32 -16v0zM1280 672l-64 64h48l-16 32h32v-32h32l-32 -64v0zM832 0l-192 192h64l-64 32l96 192l32 32l128 64h32v32l288 -288h64l-64 32
l-128 128h32l-96 96l-32 64h-32l-64 128l256 128v-32h32l16 -32h16v-64l64 -128v64l48 96h-16l32 64h192v-544l-256 -256h-448z" />
    <glyph glyph-name="O" unicode="O" 
d="M512 288l-64 32l128 64l32 -32l-32 -32v-32h-64zM64 -32l-64 32v416h32v32l128 -64h32v32l320 -160h128l-128 -256v-32h-448zM544 0l128 256h320l32 16v112l256 128v-32h32l192 96v-16l32 16v-544l-64 -32h-928zM416 320l-32 32l-192 96l-16 32h-16l-32 64v-32l32 -64
v-32l-128 64h32v224l64 32h672l32 -64v96h640l64 -32v-128l-64 -32v16l-160 -80v96l-32 -64l-256 -128v80l-32 16h-128l-32 64v-96h-224l-32 -16v-48l-128 -64l-32 -32v0z" />
    <glyph glyph-name="P" unicode="P" horiz-adv-x="1504" 
d="M0 0v512l128 -128v-64l32 64l256 -128l-32 -64l160 -160l-32 -32h-512zM640 128v48l-32 -16v32h32v64l128 128h160l32 16v32l-32 16h-160v128h32l32 32l32 16v16l64 32v-32l64 64h352l128 -64v-448l-128 -64h-704zM512 96l-96 96l32 64h64l-64 32h-32l-192 96h-32v16
l-32 16h-32v16l-32 16h32l-64 32v32l-64 64v192h832l32 -64v-32l-96 -96l-32 -64h-288l64 -32v-32h256l-32 -64l-64 -64h-32l-64 -64h32v-64h-96v-96v0zM896 704l-32 64h160l-64 -64h-64zM1024 736l64 32v-32h-64z" />
    <glyph glyph-name="Q" unicode="Q" horiz-adv-x="1664" 
d="M672 480v96l64 -32v-64h-64zM512 -128v128h-448l-64 32v512h64l-64 32l-32 32l32 32v96l64 32h448v-96l64 -32v-32l64 -32v-64h-96l-32 -16v-224l32 -16h224v-64l128 -64l32 -64h64l32 -64v-128h-512zM1056 0l-32 64l-64 32h-32l-32 64l-64 32h-32l-32 64h224l32 16v112
h64l64 32v32h16l16 32h-32l-32 -64h-64v48l-32 16h-256v64l-64 32h32l-64 32h-64v32l-64 32v96l16 -32h944l64 -32v-224l32 -64h-192l-64 -32v-64l32 64h160l32 -64l-32 -32v-256l-64 -32h-416z" />
    <glyph glyph-name="R" unicode="R" horiz-adv-x="1664" 
d="M0 160v64l32 -32l-32 -32v0zM576 160v32l32 64l32 -64l-64 -32v0zM32 96v96h32v32l32 64l64 -32l64 -64l-192 -96v0zM32 0v64l192 96h64v32l256 128h32v-64l-32 -64v-192h-512zM32 192l-32 64v64l32 64l64 -64l-64 -128v0zM0 352v64l32 -32l-32 -32v0zM1056 0l-192 192
l-128 -64v64h-64l-48 96h-16l-32 32l32 32v32l64 32l32 -32l128 64h192l32 16v32l-32 16v64l-32 -64h-32l-32 -32l-32 32l32 64l64 32v-16l32 16l64 -32l64 32h64l-64 32l-64 -32l-64 32l-64 -32v16l-32 -16l-32 64v-128h-16l-16 -32h-384l64 -32v-32h64v-32l-64 -32h32v-32
h-32l-256 -128l-32 -32l-96 96l32 32v-32h32v32l-32 32l-32 -32v32l-32 -32l-96 96v352h1184v-64l32 64h192l128 -64v-352l-64 32l96 -96l-32 -32l-128 -64h-64l192 -192h-512z" />
    <glyph glyph-name="S" unicode="S" 
d="M0 -32v256h448v-64l-32 -64l64 -128h-480zM480 224v32h64l-64 -32v0zM960 480v32l-32 64h32l192 -96h-192zM1216 480l-128 64h128l-64 32h-128l-64 32h-128l-128 64l-32 64h864v-256h-320zM512 0l-16 32h-16l-32 64l32 64v32l64 32v-32l64 -128h64l-64 32v32l-32 64v64
h416l32 16v32l-32 16h-576v32l-32 64v-96h-320l-64 32v384l64 32h576v-32l32 -64h-32l-64 -32h128l128 -64h64l32 -64h-384l-32 -16v-32l32 -16h928l64 -32v-384l-64 -32h-960zM736 768l64 32v32l64 -32v-32h-128zM672 768v64l64 32v-32l-64 -64v0z" />
    <glyph glyph-name="T" unicode="T" horiz-adv-x="1536" 
d="M128 0l64 32v-32h-64zM992 -32l-16 32h-16l-32 64v-64h-448v64l32 32l64 -32l128 64l64 -32l128 64l32 -64v96l32 64l64 32v-320h-32zM1120 352v96l64 -32v-64h-64zM1120 480v32l32 64l32 -64l-64 -32v0zM1184 768v32h64l-64 -32v0zM512 96v416l32 64h128l96 48v16
l-64 -32h-64l128 64h-64l-64 -32h-16l-16 -32h-32v96l-96 -192h-288v32l-64 -32l-32 -32l-32 32h-64v256h1152v-48l224 112l128 -256l-256 -128l-32 64h-32v32l-32 64v80l-7 3l-25 -51v-64l-32 -64h-64v-192l-64 -32h-64l64 -32h-32l-32 -64l-128 -64l-64 32l-128 -64h-64z
" />
    <glyph glyph-name="U" unicode="U" horiz-adv-x="1632" 
d="M1152 -32v32l-32 32l32 32l64 128v32l32 -64h16l-48 96v32l256 128h64l32 -32l-32 -32v-352l-64 -32h-320zM576 416v32h64l-64 -32v0zM64 0l-64 32v544h64l64 -32l32 -64l256 -128l64 32h32l32 -64h-32v-48l32 -16h224l64 -128v32l256 -128l32 -32h-1056zM192 480l-32 64
l-32 32l-64 32h32v128h192l64 -64v-64l-128 -64l-32 -64v0zM1088 64l-256 128l-32 64l32 32l32 -32h96l32 16v496h512v-320h-32l-256 -128l-32 -32v-96l-64 -128h-32zM352 736l-32 32l32 32l32 -64h-32zM416 384l-192 96v32l192 96h-32v64l64 128l256 -128l-96 -192h-32
l-64 -32h32v-32l-64 -32h-64z" />
    <glyph glyph-name="V" unicode="V" 
d="M832 416v64h32l-32 -64v0zM608 -32l32 16v112l64 32l32 32l160 320h64l128 -64h32v-32h64l-128 64v16l-96 48h-96l64 128h16l48 96h512l-64 -128h-16l-240 -480h-64v32l-32 64v-96l64 -32h64l-32 -64h-32l-32 -64h-512zM352 0l-128 256v32l64 32h-96l-224 448h512
l256 -512v-32l-32 -64l-32 -16v-16h-96l32 -32v-96h-96l32 64v32l32 32h-32l-64 -128h-128z" />
    <glyph glyph-name="W" unicode="W" horiz-adv-x="2080" 
d="M992 128v64l32 -64h-32zM352 0l-384 768h320l64 -32h128l16 -32h16l96 -192l-32 -64h-96l-128 -64h64l64 32h64v-32l-64 -32h64l-64 -128l64 -32l64 64h-32l-32 -32l-32 32l224 448h224v32h256l64 -128v-32h32l128 -256l-32 -32l-32 32v-64h32l32 32v-32l64 32h-32
l-64 128h64l-64 32l-32 64l128 256h512l-384 -768h-512l-128 256h32l32 -64v64l-32 64l-160 -320h-512z" />
    <glyph glyph-name="X" unicode="X" 
d="M768 0l64 64l64 -64h-128zM320 320l64 64h32l-32 -64h-64zM256 288v128l32 -64l-32 -64v0zM0 0l288 288h96l32 32l32 64l64 32l64 -32l64 32l64 -32v-64l64 -128h-32v32l-224 -224h-512zM1024 0l-320 320l32 64v32l32 64l64 -64l64 -32l64 32l64 -32l64 32l64 -32
l384 -384h-512zM736 480l-32 64h32v32h32l-32 -64v-32v0zM320 384l-256 256h-32l-64 64h128v32h384l256 -256l-32 -64l-64 32l-64 -32l-64 32l-64 -32h-96l-32 -32v0zM896 416l-64 32l-64 64l192 192h32v32h32l64 64h64v-32h384l-320 -320h-64v-32l-64 32l-64 -32l-32 32
l32 32l-128 -64v0z" />
    <glyph glyph-name="Y" unicode="Y" horiz-adv-x="1632" 
d="M1056 0l64 32v-32h-64zM160 0v64l64 -32v-16l32 16l-64 32h64l64 -64h-160zM512 160l-32 64l64 32v-32l-32 -64v0zM928 512v32h64l-64 -32v0zM288 480l-32 32h-32l64 64h-32v-32h-32v-32l-16 32h-16v-32l64 -32h32zM64 224l-64 32v480h192v-128l-64 -32l42 -22v0l-10 22
h32v32l32 64h-32l192 96l128 -256v64h32l-32 -64h384l-192 -96l-64 32h-192l-192 -96l-64 128v-64l64 -128v32l192 96h160l-64 -128l-64 -32l-16 32h-16v-64h-384zM512 0v128l32 32l32 64v64l64 128l64 -32l256 128h32l64 32h32l-64 32v192h416l32 -64l-64 -64l64 32v128
l96 -96l-32 -32v-384l-64 -32h-288l-64 -32l-64 32h32l64 32v32l-128 -64v-256h-512z" />
    <glyph glyph-name="Z" unicode="Z" 
d="M128 32l64 32h-32l-32 -16v-16v0zM256 32v32h-32l-32 -32h64zM1088 256l64 32v-32h-64zM896 256v96l128 -64h64l-64 -32h-128zM128 -32v32h-128v256l640 320v-192l-32 -64h32l32 64v32h-32l32 64v64l192 -192v-64l-128 -64h64l64 32l64 -32h608v-256h-832v96l-32 -64
h-416v-32h-128zM992 320v16l-32 16l-32 32v-32l-22 10l-10 -10v16l-32 16l-192 192h32v32h-64l-64 -32v-32h-96v-32l-64 -32h-416v128h96l-64 32v128h192v-32h448l32 -64v96h832v-256l-384 -192h-160z" />
    <glyph glyph-name="backslash" unicode="\" horiz-adv-x="704" 
d="M224 64l-64 32l32 32l32 -32h192l32 32l32 -32l-64 -32h-192zM160 128v96l32 -16v48h64q-18 0 -32 -9v-23q0 10 -7 19q-3 -3 -7 -6q-13 -13 -17 -30l31 -15h192l64 32v-96l-13 25l-51 -25h-192l-52 25l-12 -25v0zM256 224v32h32q-14 0 -23 -10q-9 -9 -9 -22v0zM320 224
q0 13 -10 22q-9 10 -22 10h64q-14 0 -23 -10q-9 -9 -9 -22v0zM384 224q0 13 -10 22q-9 10 -22 10h64q-14 0 -23 -10q-9 -9 -9 -22v0zM416 224v32h32v-32q0 13 -10 22q-3 3 -6 5q-4 -2 -7 -5q-9 -9 -9 -22v0zM256 288q13 0 22 9q10 9 10 23q0 -14 9 -23t23 -9h-64zM320 288
q13 0 22 9q10 9 10 23q0 -14 9 -23t23 -9h-64zM160 224v64q0 26 18 45q19 19 46 19h32q-14 0 -23 -10q-9 -9 -9 -22q0 -14 9 -23t23 -9h-32q-14 0 -23 -10q-9 -9 -9 -22q-14 0 -23 -10q-9 -9 -9 -22v0zM480 224q0 13 -10 22q-9 10 -22 10q0 13 -10 22q-9 10 -22 10h-32
q13 0 22 9q10 9 10 23q0 13 -10 22q-9 10 -22 10h32q26 0 45 -19t19 -45v-64v0zM288 384l-39 19q7 -9 7 -19h32zM384 384q0 10 6 19l-38 -19h32zM192 384q0 13 9 22q9 10 23 10l-64 32v-32q0 -14 9 -23t23 -9v0zM448 384q13 0 22 9q10 9 10 23v32l-64 -32q13 0 22 -10
q10 -9 10 -22v0zM192 352l-96 96h-32q13 0 22 9q10 9 10 23v32l48 -48l16 16v32l64 -64v32l64 -64v-1l32 -31l-32 -32v0l-64 32l-32 -32v0zM597 501l-5 11h-16l21 -11v0zM96 544l-13 6l-3 -6h16zM464 576l16 32h-16l-8 -16l8 -16v0zM96 608l-13 6l-3 -6h16zM520 624l8 16
h-16l8 -16v0zM64 640l-13 6l-3 -6h16zM192 640l16 32h-16v-32v0zM256 640v32l-8 -16l8 -16v0zM424 656l8 16h-16l8 -16v0zM537 659l7 13h-32l25 -13v0zM168 688l8 16h-16l8 -16v0zM216 688l8 16h-16l8 -16v0zM224 0l-128 64l-32 64v192q0 -14 -10 -23q-9 -9 -22 -9
q-14 0 -23 9t-9 23v128q0 13 9 22q9 10 23 10h-32l32 16v16h-32l32 16l-32 16h64l-26 12l-6 -12v16l-32 16l32 16v16h-32l32 16l-32 16h32v16l-32 16h32v64l32 -64v64l16 -32l16 32v32l24 -48l8 16v32l16 -32l16 32l16 -32l16 32v32l24 -48l8 16v32l16 -32l16 32l16 -32
l16 32l16 -32l16 32l16 -32l16 32l16 -32l16 32v-32h16l16 32l24 -48l8 16l8 -16l24 48v-32l16 -32l16 32l16 -32l16 32v-64l32 64v-64h32l-32 -16v-16h64l-48 -24l16 -8h32l-32 -16l32 -16l-32 -16l32 -16l-32 -16l32 -16h32l-48 -24l16 -8h-32l64 -32h-96l-16 32l-16 -32
q0 -14 9 -23t23 -9h-32l-96 -96l-32 32l-64 -32v0l-32 32l31 32h1l64 64v-32l64 64v-32l16 -16l48 48l-8 16l-24 -48v32l-16 32l-16 -32l-16 32l-16 -32l-16 32l-16 -32v32l-8 16l-24 -48v32l-16 32l-16 -32v-32l-24 48l-8 -16v-32l-16 32l-16 -32v32l-8 16l-24 -48v32
l-16 32l-16 -32v32l-8 16l-24 -48v32l-16 32l-16 -32v-64l-32 64h16l-8 16l-8 -16v-96l-24 48l-8 -16h-16l-16 -32v-96q0 -27 18 -46q19 -18 46 -18q-14 0 -23 -10q-9 -9 -9 -22v-160l32 -64h32l64 -32h192l64 32h32l32 64v160q0 13 -10 22q-9 10 -22 10q26 0 45 18
q19 19 19 46v64q0 13 9 22q9 10 23 10q13 0 22 -10q10 -9 10 -22v-128q0 -14 -10 -23q-9 -9 -22 -9q-14 0 -23 9t-9 23v-192l-32 -64l-128 -64h-192z" />
    <glyph glyph-name="a" unicode="a" 
d="M1024 448l-64 64h-384l-64 -64h512zM0 0v512l256 256h1024l256 -256v-512h-512v192h-512v-192h-512z" />
    <glyph glyph-name="b" unicode="b" 
d="M992 256l32 16v32l-32 16h-480v-64h480zM992 448l32 16v32l-32 16h-544l64 -32v-32h480zM0 0v768h1408l128 -64v-288l-64 -32l64 -32v-288l-128 -64h-1408z" />
    <glyph glyph-name="c" unicode="c" 
d="M64 0l-64 32v704l64 32h1472v-256h-992l-32 -16v-224l32 -16h992v-256h-1472z" />
    <glyph glyph-name="d" unicode="d" 
d="M992 256l32 16v224l-32 16h-544l64 -32v-224h480zM0 0v768h1408l128 -64v-640l-128 -64h-1408z" />
    <glyph glyph-name="e" unicode="e" 
d="M0 0v768h1536v-256h-1024v-64h1024v-128h-1024v-64h1024v-256h-1536z" />
    <glyph glyph-name="f" unicode="f" 
d="M0 0v768h1536v-256h-1024v-64h1024v-128h-1024v-320h-512z" />
    <glyph glyph-name="g" unicode="g" 
d="M64 0l-64 32v704l64 32h1472v-256h-992l-32 -16v-224l32 -16h480v64h-256v128h768v-448h-512v32l-64 -32h-896z" />
    <glyph glyph-name="h" unicode="h" 
d="M0 0v768h512v-256h512v256h512v-768h-512v256h-512v-256h-512z" />
    <glyph glyph-name="i" unicode="i" horiz-adv-x="544" 
d="M0 0v768h512v-768h-512z" />
    <glyph glyph-name="j" unicode="j" horiz-adv-x="1056" 
d="M0 0v256h480l32 16v496h512v-736l-64 -32h-960z" />
    <glyph glyph-name="k" unicode="k" 
d="M0 0v768h512v-320h192l320 320h512l-320 -320h256l64 -32v-416h-512v176l-32 16h-480v-192h-512z" />
    <glyph glyph-name="l" unicode="l" horiz-adv-x="1312" 
d="M0 0v768h512v-512h768v-256h-1280z" />
    <glyph glyph-name="m" unicode="m" horiz-adv-x="1696" 
d="M0 0v768h512l320 -320l320 320h512v-768h-512v320l-320 -320l-320 320v-320h-512z" />
    <glyph glyph-name="n" unicode="n" 
d="M0 0v768h704l320 -320v320h512v-768h-704l-320 320v-320h-512z" />
    <glyph glyph-name="o" unicode="o" 
d="M992 256l32 16v224l-32 16h-448l-32 -16v-224l32 -16h448zM64 0l-64 32v704l64 32h1408l64 -32v-704l-64 -32h-1408z" />
    <glyph glyph-name="p" unicode="p" 
d="M992 448l32 16v32l-32 16h-544l64 -32v-32h480zM0 0v768h1408l128 -64v-448l-128 -64h-896v-192h-512z" />
    <glyph glyph-name="q" unicode="q" 
d="M992 256l32 16v224l-32 16h-448l-32 -16v-224l32 -16h448zM512 -128v128h-448l-64 32v704l64 32h1408l64 -32v-704l-64 -32h-448v-128h-512z" />
    <glyph glyph-name="r" unicode="r" 
d="M992 448l32 16v32l-32 16h-544l64 -32v-32h480zM0 0v768h1408l128 -64v-448l-128 -64h-64l192 -192h-512l-192 192h-320v-192h-512z" />
    <glyph glyph-name="s" unicode="s" 
d="M0 0v256h992l32 16v32l-32 16h-928l-64 32v384l64 32h1472v-256h-992l-32 -16v-32l32 -16h928l64 -32v-384l-64 -32h-1472z" />
    <glyph glyph-name="t" unicode="t" 
d="M512 0v512h-512v256h1536v-256h-512v-512h-512z" />
    <glyph glyph-name="u" unicode="u" 
d="M64 0l-64 32v736h512v-496l32 -16h448l32 16v496h512v-736l-64 -32h-1408z" />
    <glyph glyph-name="v" unicode="v" 
d="M352 0l-384 768h512l256 -512l256 512h512l-384 -768h-768z" />
    <glyph glyph-name="w" unicode="w" horiz-adv-x="2080" 
d="M352 0l-384 768h512l128 -256l128 256h512l128 -256l128 256h512l-384 -768h-512l-128 256l-128 -256h-512z" />
    <glyph glyph-name="x" unicode="x" horiz-adv-x="1536" 
d="M-32 0l384 384l-384 384h512l256 -256l256 256h512l-384 -384l384 -384h-512l-256 256l-256 -256h-512z" />
    <glyph glyph-name="y" unicode="y" 
d="M512 0v256h-448l-64 32v480h512v-240l32 -16h448l32 16v240h512v-480l-64 -32h-448v-256h-512z" />
    <glyph glyph-name="z" unicode="z" 
d="M0 0v256l512 256h-512v256h1536v-256l-512 -256h512v-256h-1536z" />
    <glyph glyph-name="bar" unicode="|" horiz-adv-x="1120" 
d="M32 -64v32h128v-32h-128zM972 19v25h-25v-25h25zM268 83v25h-25v-25h25zM364 83v25h-25v-25h25zM556 83v25h-25v-25h25zM64 0v128h64v-32h-32v-64h32v-32h-64zM224 0v32h32v32h-32v64h64v-128h-64zM320 0v128h64v-64h-32v-32h32v-32h-64zM416 0v96q0 13 9 22q9 10 23 10
q13 0 22 -10q10 -9 10 -22v-96l-32 64l-32 -64v0zM512 0v128h64v-64h-32v-32h32v-32h-64zM640 0v128h32q13 0 22 -10q10 -9 10 -22q0 -14 -10 -23q-9 -9 -22 -9q13 0 22 -10q10 -9 10 -22q0 -14 -10 -23q-9 -9 -22 -9h-32zM768 0q-14 0 -23 9t-9 23v96l32 -64l32 64v-96
q0 -14 -10 -23q-9 -9 -22 -9v0zM832 0v128h32q13 0 22 -10q10 -9 10 -22q0 -14 -10 -23q-9 -9 -22 -9q13 0 22 -10q10 -9 10 -22q0 -14 -10 -23q-9 -9 -22 -9h-32zM928 0v64h32v32h-32v32h64v-128h-64zM1024 0v96q0 13 9 22q9 10 23 10q13 0 22 -10q10 -9 10 -22v-96l-32 64
l-32 -64v0zM0 -32v192h32v-192h-32zM160 -32v192h32v-192h-32zM32 160v32h128v-32h-128z" />
  </font>
</defs>
</svg>
