<svg xmlns="http://www.w3.org/2000/svg">
<defs>
<font id="ShutUpandLoveMe" horiz-adv-x="624" >
  <font-face 
    font-family="Shut Up and Love Me"
    font-weight="400"
    font-stretch="normal"
    units-per-em="2048"
    panose-1="2 0 5 0 0 0 0 0 0 0"
    ascent="1638"
    descent="-410"
    x-height="1408"
    cap-height="1432"
    bbox="-32 -156 1396 1572"
    underline-thickness="150"
    underline-position="-292"
    unicode-range="U+001D-007E"
  />
<missing-glyph horiz-adv-x="1464" 
d="M676 1396h32q335 0 564 -300q124 -187 124 -380v-40q0 -314 -288 -548q-194 -128 -388 -128h-32q-335 0 -564 300q-124 187 -124 380v40q0 314 288 548q194 128 388 128zM96 880h4q688 -4 1084 -4h116q-94 264 -292 364q-138 84 -296 84h-32q-268 0 -468 -228
q-88 -113 -116 -216zM664 1252l28 -28l32 28q5 0 32 -32q-6 0 -28 -28v-4q0 -6 28 -28q0 6 28 28h4q6 0 28 -28v-4q0 -6 -28 -28h-4l-32 28l-24 -28q28 -30 28 -36l-32 -28l-32 28l-32 -28l-28 32l28 32q-25 28 -28 28l-32 -28q-5 0 -32 32l32 28l32 -28l28 32q-6 0 -28 28
q0 5 32 32zM692 1220l-28 -32l32 -28q0 2 24 28v4q0 6 -28 28zM692 1156l-28 -32q26 -24 28 -24q6 0 28 28q0 6 -28 28zM320 1008h12l28 -8v-8l-8 -12q-22 4 -32 4q-16 -4 -16 -24q0 -17 20 -24q26 8 28 8l12 -16q-13 -10 -36 -16q-52 9 -52 48q8 48 44 48zM372 1008h20
q8 -1 8 -8v-28h28v36h28v-92h-28v32h-28v-32h-28v92zM476 1008h64v-24h-44v-12h44v-16q0 -8 -8 -8l-8 4l-8 -4l-20 4v-12h40q8 -1 8 -8v-16h-76v84q1 8 8 8zM600 1008q52 -7 52 -44l-8 -32q8 -1 8 -8q0 -6 -16 -16q-10 8 -12 8q-22 -4 -32 -4q-33 0 -44 48q0 48 52 48z
M668 1008h12q8 -1 8 -8v-40q3 -24 12 -24h8q6 0 12 12v52l4 8l8 -4h4l8 4l4 -8v-48q-5 -40 -40 -40h-8q-36 0 -40 48v40q1 8 8 8zM764 1008h8l24 -4q8 4 12 4q8 -4 12 -4q8 4 12 4v-20q0 -8 -8 -8q-7 4 -16 4v-4l-8 4h-12v-12h44v-16q0 -8 -8 -8h-36v-12h12q4 0 4 4l8 -4h8
q4 0 4 4q8 -4 12 -4v-20h-20l-24 -4q-7 4 -20 4v-4q-8 4 -12 4v72zM852 1008l28 -4v4q48 -7 48 -32q-3 -28 -20 -28l24 -32l-8 -4h-16q-3 0 -32 32h-4v-16l4 -8l-8 -4h-24v4q0 8 4 8l-4 28l4 40h-4q4 12 8 12zM940 1004h72v-16q0 -8 -8 -8h-36v-8h40v-24h-40v-12h44v-16

<glyph glyph-name=".notdef" horiz-adv-x="1464" 
d="M676 1396h32q335 0 564 -300q124 -187 124 -380v-40q0 -314 -288 -548q-194 -128 -388 -128h-32q-335 0 -564 300q-124 187 -124 380v40q0 314 288 548q194 128 388 128zM96 880h4q688 -4 1084 -4h116q-94 264 -292 364q-138 84 -296 84h-32q-268 0 -468 -228
q-88 -113 -116 -216zM664 1252l28 -28l32 28q5 0 32 -32q-6 0 -28 -28v-4q0 -6 28 -28q0 6 28 28h4q6 0 28 -28v-4q0 -6 -28 -28h-4l-32 28l-24 -28q28 -30 28 -36l-32 -28l-32 28l-32 -28l-28 32l28 32q-25 28 -28 28l-32 -28q-5 0 -32 32l32 28l32 -28l28 32q-6 0 -28 28
q0 5 32 32zM692 1220l-28 -32l32 -28q0 2 24 28v4q0 6 -28 28zM692 1156l-28 -32q26 -24 28 -24q6 0 28 28q0 6 -28 28zM320 1008h12l28 -8v-8l-8 -12q-22 4 -32 4q-16 -4 -16 -24q0 -17 20 -24q26 8 28 8l12 -16q-13 -10 -36 -16q-52 9 -52 48q8 48 44 48zM372 1008h20
q8 -1 8 -8v-28h28v36h28v-92h-28v32h-28v-32h-28v92zM476 1008h64v-24h-44v-12h44v-16q0 -8 -8 -8l-8 4l-8 -4l-20 4v-12h40q8 -1 8 -8v-16h-76v84q1 8 8 8zM600 1008q52 -7 52 -44l-8 -32q8 -1 8 -8q0 -6 -16 -16q-10 8 -12 8q-22 -4 -32 -4q-33 0 -44 48q0 48 52 48z
M668 1008h12q8 -1 8 -8v-40q3 -24 12 -24h8q6 0 12 12v52l4 8l8 -4h4l8 4l4 -8v-48q-5 -40 -40 -40h-8q-36 0 -40 48v40q1 8 8 8zM764 1008h8l24 -4q8 4 12 4q8 -4 12 -4q8 4 12 4v-20q0 -8 -8 -8q-7 4 -16 4v-4l-8 4h-12v-12h44v-16q0 -8 -8 -8h-36v-12h12q4 0 4 4l8 -4h8
q4 0 4 4q8 -4 12 -4v-20h-20l-24 -4q-7 4 -20 4v-4q-8 4 -12 4v72zM852 1008l28 -4v4q48 -7 48 -32q-3 -28 -20 -28l24 -32l-8 -4h-16q-3 0 -32 32h-4v-16l4 -8l-8 -4h-24v4q0 8 4 8l-4 28l4 40h-4q4 12 8 12zM940 1004h72v-16q0 -8 -8 -8h-36v-8h40v-24h-40v-12h44v-16
q0 -8 -8 -8h-56q-8 0 -8 8v84zM1024 1004h48q36 0 40 -48q0 -42 -64 -44h-16q-8 0 -8 8v84zM576 956q6 -20 28 -20q20 6 20 28q-8 18 -16 20h-16q-16 -6 -16 -28zM872 984v-20h20q8 0 8 8v4q0 8 -8 8h-20zM1052 980v-44h4q22 0 28 16v16q0 6 -12 12h-20zM208 680v-8
q13 -68 64 -68h40q20 10 20 32v16q-16 0 -16 20q0 40 76 40q0 5 16 8v-4q-75 -248 -96 -252h-8q-9 0 -12 20q0 7 20 44q-20 36 -52 36h-12q-64 -9 -64 -64v-8q0 -58 72 -84q21 -4 40 -4h16q125 0 164 172q24 53 84 228q-19 12 -52 12h-24q-31 0 -60 -36q-51 -22 -156 -36
q-60 -21 -60 -64zM796 460l-4 8v12q0 19 32 136q-10 40 -44 40h-28q-17 0 -64 -20v8l4 8q-16 8 -44 8h-40q-35 0 -48 -44q-64 -198 -64 -208q24 -12 68 -12q60 0 60 60q41 132 56 132q12 0 12 4q16 -6 16 -12q-36 -93 -36 -124v-8q0 -39 56 -48q40 0 108 36l-8 -24
q16 -16 56 -16q68 0 68 32q22 160 76 160h12q8 -1 8 -8v-4q0 -27 -52 -52l-4 -20q0 -104 84 -104q87 0 144 108l-16 12h-8q-35 -60 -80 -60h-8q-24 10 -24 36v16l56 36q20 37 20 56v8q0 41 -60 48q-16 0 -84 -24q0 4 -4 4q60 154 60 160q-19 12 -60 12h-36q-30 0 -40 -68
q-11 -12 -80 -236q-45 -48 -60 -48zM208 312v-4q203 -236 476 -236h32q251 0 448 204q24 28 24 32q-502 4 -748 4h-232zM516 244h40v-8h-32v-20h32v-8h-32v-16h28q8 -1 8 -8h-44v60zM580 244h20q6 0 12 -12h-4l-24 4q-8 -1 -8 -8v-8q40 -4 40 -20q-6 -20 -28 -20
q-24 8 -24 16l8 4q0 -9 20 -12l16 8q0 12 -40 20v16q0 6 12 12zM616 244h48v-8h-20v-52h-8v52h-20v8zM716 244q12 0 24 -16q0 -19 -40 -24l-4 -8q1 -8 8 -8h32v-8h-28l-20 4v4q0 28 28 28h12q0 4 4 12l-12 8h-12l-16 -12v8q4 12 24 12zM772 244h4q6 0 16 -16v-32
q-6 -16 -28 -16q-20 6 -20 28v8q0 28 28 28zM820 244v-56h12q0 -8 -8 -8h-20v8h8v44h-8v8q9 0 16 4zM840 244h36q8 -1 8 -8h-36v-16h24q8 -2 16 -20q-6 -20 -28 -20q-20 3 -20 12v8l16 -12h12q6 0 12 12q0 6 -12 12h-28v32zM752 224v-24q0 -6 12 -12h8q6 0 12 12v24
q0 6 -12 12h-8q-6 0 -12 -12z" />
    <glyph glyph-name=".null" horiz-adv-x="0" 
 />
    <glyph glyph-name=".null" horiz-adv-x="0" 
 />
    <glyph glyph-name="nonmarkingreturn" horiz-adv-x="508" 
 />
    <glyph glyph-name="space" unicode=" " horiz-adv-x="280" 
 />
    <glyph glyph-name="space" unicode="&#xa0;" horiz-adv-x="280" 
 />
    <glyph glyph-name="exclam" unicode="!" horiz-adv-x="323" 
d="M114 194q80 -28 80 -48q11 -26 32 -44q16 -24 16 -44q0 -54 -64 -60h-84q-88 16 -88 88q0 4 4 4l-4 20v12q0 72 108 72zM122 336q-43 0 -60 64q-16 11 -36 97q-9 0 -24 76v507q0 4 8 48v82q0 22 24 79q11 109 32 122q0 14 44 21q38 0 48 -39q-16 -47 -16 -55v-82
q8 -29 8 -33v-192q8 -30 8 -33v-88q16 -16 16 -34v-306q0 -16 -12 -28q0 -69 -4 -100q9 0 12 -21q-8 -20 -8 -27q9 0 12 -22q0 -28 -52 -36z" />
    <glyph glyph-name="quotedbl" unicode="&#x22;" 
d="M25 1271q-19 22 -19 55q0 4 4 4l-4 20v12q0 72 108 72q80 -28 80 -48q11 -26 32 -44q16 -24 16 -44q0 -11 -3 -21q1 0 1 -1l4 -24v-20q0 -42 -48 -80q-28 -68 -92 -68q-72 10 -72 72v96q-4 11 -7 19zM325 1271q-19 22 -19 55q0 4 4 4l-4 20v12q0 72 108 72q80 -28 80 -48
q11 -26 32 -44q16 -24 16 -44q0 -11 -3 -21q1 0 1 -1l4 -24v-20q0 -42 -48 -80q-28 -68 -92 -68q-72 10 -72 72v96q-4 11 -7 19z" />
    <glyph glyph-name="numbersign" unicode="#" horiz-adv-x="640" 
d="M498 968v-300q8 -58 8 -64v-176h50q56 -6 56 -52q-10 -48 -56 -48h-50v-264q0 -53 -64 -60q-45 0 -60 88q-8 119 -20 160q0 22 -16 76h-110v-56q0 -10 -12 -48v-132q0 -30 -20 -44l4 -8q-6 -56 -52 -56q-64 0 -64 88q-11 0 -16 56v204q-8 3 -16 8q-16 -8 -28 -8
q-38 0 -48 52q12 60 52 60q17 0 40 -5v281q0 5 -8 44v232h-8q-8 0 -40 -8q-38 0 -48 52q0 48 64 56h43q15 124 21 152q8 0 8 8v24q0 17 4 32q-4 16 -4 32v8q0 53 64 60q38 0 48 -52q-8 -26 -8 -36v-12q32 -23 32 -108v-120q43 -9 95 -13l3 13q8 64 8 68v160q0 76 60 84
q38 0 52 -60q18 0 36 -120v-148h10q17 0 44 4q44 -14 44 -52q0 -44 -60 -52h-38zM337 428q-3 18 -7 36l-12 500l2 8q-41 3 -76 9v-497q0 -6 -7 -56h100z" />
    <glyph glyph-name="dollar" unicode="$" horiz-adv-x="587" 
d="M186 1429q6 55 14 55v32q6 56 52 56q48 -10 48 -56v-52l-8 -35h2q100 -28 100 -58q40 -47 40 -100q-18 -54 -60 -54q-48 10 -48 58l4 8q-15 42 -64 42h-28q-64 -50 -68 -50v-66q7 -79 36 -79q40 -62 40 -100q10 0 16 -54q14 -11 20 -100q18 -83 32 -83q13 -92 32 -92
q23 -49 40 -66q17 -47 64 -138v-37q44 -63 44 -141q4 0 4 -17v-29q0 -65 -56 -158q-11 -30 -52 -54q-37 -38 -80 -38q-6 -15 -48 -25q-16 -140 -44 -140q0 -8 -24 -8q-43 0 -52 56q0 3 17 80h-25q-75 0 -96 129q0 39 52 50q42 0 56 -75h12q58 8 64 8q0 41 96 79l12 46
q-12 0 -16 58v54q-32 16 -32 67q-8 3 -24 87q-46 94 -96 179q0 32 -28 87q-24 0 -28 96q-9 22 -28 46l-56 116q0 17 -24 79v87q0 54 56 175q66 75 104 75h28z" />
    <glyph glyph-name="percent" unicode="%" horiz-adv-x="608" 
d="M48 -24q-53 0 -60 64v220q0 49 40 148q4 91 32 100q4 61 16 72v32q0 16 4 16l48 128l76 184q36 88 68 144l48 84q36 45 36 72q32 73 32 84q0 58 80 84q46 0 52 -56v-84q0 -101 -56 -160q-26 -84 -44 -84q-17 -76 -36 -76q-5 -48 -12 -60l-36 -84q-9 -100 -36 -100
l-60 -192q-4 0 -16 -24q-18 -120 -28 -120q-8 -61 -24 -104q-36 -49 -36 -96q-37 -68 -48 -108q0 -6 8 -32q-10 -52 -48 -52zM88 1408h68q23 -1 44 -12l20 4h8q59 0 76 -76v-32q0 -29 -24 -48q-16 -68 -60 -68q0 -16 -84 -20h-36q-40 0 -76 56q-20 14 -20 44v12q0 14 4 36
q-4 7 -4 16q27 88 84 88zM132 1284h-12v-28h24q18 0 40 20q0 6 -16 12q-22 -4 -36 -4zM293 262h68q23 -1 44 -12l20 4h8q59 0 76 -76v-32q0 -29 -24 -48q-16 -68 -60 -68q0 -16 -84 -20h-36q-40 0 -76 56q-20 14 -20 44v12q0 14 4 36q-4 7 -4 16q27 88 84 88zM337 138h-12
v-28h24q18 0 40 20q0 6 -16 12q-22 -4 -36 -4z" />
    <glyph glyph-name="ampersand" unicode="&#x26;" horiz-adv-x="678" 
d="M396 44q-52 -52 -84 -52h-100q-10 0 -48 12q-104 30 -104 112q-32 43 -32 80q-32 32 -32 156v36q11 29 20 124q24 61 36 116q44 29 44 36v8q-76 54 -76 108v52q-24 24 -24 52v52q0 23 11 37q1 25 1 31q24 83 24 104q0 24 68 144q21 59 40 88q109 100 160 100h80
q68 0 88 -92q37 -51 52 -112q17 0 28 -136v-56q0 -57 -104 -88q-52 10 -52 48q3 28 12 28q-4 153 -4 224q0 11 -12 20q-22 62 -28 64h-44l-44 -20q-8 -6 -64 -124v-252q7 -16 12 -36v-112q14 -26 46 -52q65 -2 142 -24v8q11 72 68 72q42 0 60 -80h24q56 -6 56 -52
q0 -41 -76 -56v-64q-7 -75 -20 -96q0 -116 -26 -120q6 -10 10 -24q-4 -38 -17 -62q1 -7 1 -14v-16q13 -13 20 -64q6 -18 64 -76q20 -23 20 -44q0 -38 -52 -48q-85 12 -124 44q-9 6 -20 16zM340 612q-30 -23 -104 -36q0 -15 -56 -24q-11 -15 -24 -96q4 -54 4 -92
q0 -11 -4 -19v-29q0 -21 32 -144v-28q0 -7 48 -52h24q0 12 16 20q24 0 24 80q7 23 12 43v13q2 12 4 21v23q0 23 20 41v27q0 37 32 200l24 44v8h-52z" />
    <glyph glyph-name="quotesingle" unicode="'" horiz-adv-x="323" 
d="M25 1271q-19 22 -19 55q0 4 4 4l-4 20v12q0 72 108 72q80 -28 80 -48q11 -26 32 -44q16 -24 16 -44q0 -11 -3 -21q1 0 1 -1l4 -24v-20q0 -42 -48 -80q-28 -68 -92 -68q-72 10 -72 72v96q-4 11 -7 19z" />
    <glyph glyph-name="parenleft" unicode="(" horiz-adv-x="393" 
d="M249 -92q-44 24 -109 84q-19 29 -40 88q-68 120 -68 144q0 21 -24 104q0 19 -12 216v636q0 124 32 156q0 37 32 80q0 82 104 112q38 12 48 12h60q9 0 14 -4q23 4 30 4q44 -14 44 -52q0 -48 -84 -64h-20q-18 0 -31 6q-37 -36 -37 -42v-28q-32 -123 -32 -144v-192
q0 -70 12 -220.5t12 -187.5v-24q16 -39 20 -100q8 0 8 -28v-328q56 -118 64 -124l41 -18q3 1 7 2q56 -12 56 -56q0 -45 -72 -60h-4q-39 4 -51 28z" />
    <glyph glyph-name="parenright" unicode=")" horiz-adv-x="393" 
d="M123 1512q44 -24 109 -84q19 -29 40 -88q68 -120 68 -144q0 -21 24 -104q0 -19 12 -216v-636q0 -124 -32 -156q0 -37 -32 -80q0 -82 -104 -112q-38 -12 -48 -12h-60q-9 0 -14 4q-23 -4 -30 -4q-44 14 -44 52q0 48 84 64h20q18 0 31 -6q37 36 37 42v28q32 123 32 144v192
q0 70 -12 220.5t-12 187.5v24q-16 39 -20 100q-8 0 -8 28v328q-56 118 -64 124l-41 18q-3 -1 -7 -2q-56 12 -56 56q0 45 72 60h4q39 -4 51 -28z" />
    <glyph glyph-name="asterisk" unicode="*" horiz-adv-x="468" 
d="M109 1215q-2 3 -5 7q-6 3 -34 28q-9 -15 -47 0q-36 32 -13 72l2 4q61 70 105 45q6 -4 38 -45q11 -12 20 -21q24 25 27 31q117 108 152 87l7 -4q39 -36 11 -85q8 -4 -7 -37l-50 -86q8 -5 35 -35l42 -24q45 -33 22 -73q-31 -37 -76 -11q-35 20 -89 28l-7 4q-20 -25 -27 -21
q-11 -14 -64 -23l-6 -20q-19 -33 -69 -15q-42 24 -7 124z" />
    <glyph glyph-name="plus" unicode="+" horiz-adv-x="533" 
d="M124 685q-4 1 -8 3q-7 0 -44 8q0 -18 -40 -24q-48 10 -48 56v4q18 92 68 92q8 0 56 -20q15 -5 28 -8q8 33 8 40q47 152 88 152h8q52 -12 52 -68q9 0 12 -36v-100q10 0 48 -12h48q56 -6 56 -52q-8 -48 -60 -48q-41 0 -92 -20h-8q-4 -32 -12 -32q-3 -17 -44 -52l4 -20
q0 -38 -52 -48q-48 0 -68 104v81z" />
    <glyph glyph-name="comma" unicode="," horiz-adv-x="323" 
d="M138 -2h-6v-2q4 0 6 2zM25 31q-19 22 -19 55q0 4 4 4l-4 20v12q0 72 108 72q80 -28 80 -48q11 -26 32 -44q16 -24 16 -44q0 -11 -3 -21q1 0 1 -1l4 -24v-20q0 -42 -48 -80q-28 -68 -92 -68q-72 10 -72 72v96q-4 11 -7 19z" />
    <glyph glyph-name="hyphen" unicode="-" horiz-adv-x="533" 
d="M52 824q8 0 56 -20q67 -20 72 -20h124q10 0 48 -12h48q56 -6 56 -52q-8 -48 -60 -48q-41 0 -92 -20h-28q-77 0 -160 36q-7 0 -44 8q0 -18 -40 -24q-48 10 -48 56v4q18 92 68 92z" />
    <glyph glyph-name="hyphen" unicode="&#xad;" horiz-adv-x="533" 
d="M52 824q8 0 56 -20q67 -20 72 -20h124q10 0 48 -12h48q56 -6 56 -52q-8 -48 -60 -48q-41 0 -92 -20h-28q-77 0 -160 36q-7 0 -44 8q0 -18 -40 -24q-48 10 -48 56v4q18 92 68 92z" />
    <glyph glyph-name="period" unicode="." horiz-adv-x="323" 
d="M114 194q80 -28 80 -48q11 -26 32 -44q16 -24 16 -44q0 -54 -64 -60h-84q-88 16 -88 88q0 4 4 4l-4 20v12q0 72 108 72z" />
    <glyph glyph-name="slash" unicode="/" horiz-adv-x="608" 
d="M48 -24q-53 0 -60 64v220q0 49 40 148q4 91 32 100q4 61 16 72v32q0 16 4 16l48 128l76 184q36 88 68 144l48 84q36 45 36 72q32 73 32 84q0 58 80 84q46 0 52 -56v-84q0 -101 -56 -160q-26 -84 -44 -84q-17 -76 -36 -76q-5 -48 -12 -60l-36 -84q-9 -100 -36 -100
l-60 -192q-4 0 -16 -24q-18 -120 -28 -120q-8 -61 -24 -104q-36 -49 -36 -96q-37 -68 -48 -108q0 -6 8 -32q-10 -52 -48 -52z" />
    <glyph glyph-name="zero" unicode="0" 
d="M368 772q-8 13 -2.5 80.5t14.5 67.5q-12 21 -12 40v44q0 52 -36 100q0 24 -32 136q0 80 -24 80q-16 8 -16 20h-24q-48 -45 -48 -52v-28q-32 -123 -32 -144v-192q0 -70 12 -120.5t12 -87.5v-24q16 -39 20 -100q8 0 8 -28v-328q56 -118 64 -124l44 -20h44q6 2 28 64
q12 9 12 20q0 73 4 232l-36 120v244zM520 771v-39q11 0 20 -164q8 0 8 -28v-208q-11 -136 -28 -136q-15 -61 -52 -112q-20 -92 -88 -92h-80q-51 0 -160 100q-19 29 -40 88q-68 120 -68 144q0 21 -24 104q0 19 -12 216v436q0 124 32 156q0 37 32 80q0 82 104 112q38 12 48 12
h100q33 0 88 -56q72 -31 72 -116q16 0 16 -152q16 -18 16 -144q32 -35 30 -112t-14 -89z" />
    <glyph glyph-name="one" unicode="1" horiz-adv-x="414" 
d="M190.5 68.5q-12.5 80.5 -12.5 85.5v362q-8 39 -8 44v76q-35 153 -16 159v329q0 21 12 36v72q0 20 4 60q-8 0 -11 20h-11q-123 9 -142 48q0 3 -4 24q10 48 56 48h24q95 -6 124 0q43 0 60 -84q16 -15 36 -128q9 0 24 -100v-668q0 -6 -8 -64v-108q0 -29 -24 -104
q-11 -143 -32 -160q0 -19 -44 -28q-15 0 -27.5 80.5z" />
    <glyph glyph-name="two" unicode="2" horiz-adv-x="527" 
d="M293 109q16 -2 45 -6h12q14 73 56 73q52 -10 52 -48q-21 -127 -96 -127h-40q-18 2 -33 3q-17 -20 -49 -20h-60l-76 16h-64q-60 0 -60 74v85q8 40 8 45v65q2 21 10 35v37q0 17 4 17q0 77 44 138v37q47 88 64 134q17 16 40 65q19 0 32 90q14 0 32 81q6 87 20 98q6 53 16 53
q0 37 40 98q29 0 36 77v65q-4 0 -68 49h-28q-49 0 -64 -41l4 -8q0 -47 -48 -57q-42 0 -60 53q0 52 40 98q0 31 100 57h136q38 0 104 -73q56 -119 56 -171v-86q-24 -60 -24 -77l-56 -114q-19 -24 -28 -45q-4 -94 -28 -94q-28 -55 -28 -85q-50 -84 -96 -175q-15 -83 -24 -86
q0 -49 -32 -65v-19q19 -28 -22 -112q4 0 4 -4q-4 -42 -4 -66v-36q7 -12 112 2q13 -10 21 -30z" />
    <glyph glyph-name="three" unicode="3" 
d="M537 459q-1 -25 -1 -31q-24 -83 -24 -104q0 -24 -68 -144q-21 -59 -40 -88q-109 -100 -160 -100h-80q-68 0 -88 92q-37 51 -52 112q-17 0 -28 136v56q0 57 104 88q52 -10 52 -48q-3 -28 -12 -28q4 -153 4 -224q0 -11 12 -20q22 -62 28 -64h44l44 20q8 6 64 124v252
q-7 16 -12 36v112q-22 42 -92 84q-48 29 -48 64q0 50 124 72q0 15 56 24q11 15 24 96q-4 54 -4 92q0 11 4 19v29q0 21 -32 144v28q0 7 -48 52h-24q0 -12 -16 -20q-24 0 -24 -80q-11 -38 -18 -66q2 -8 2 -18v-16q0 -51 -100 -76q-72 0 -88 60q4 39 17 63q3 81 15 81
q0 85 72 116q55 56 88 56h100q10 0 48 -12q104 -30 104 -112q32 -43 32 -80q32 -32 32 -156v-36q-11 -29 -20 -124q-24 -61 -36 -116q-44 -29 -44 -36v-8q76 -54 76 -108v-52q24 -24 24 -52v-52q0 -23 -11 -37z" />
    <glyph glyph-name="four" unicode="4" horiz-adv-x="581" 
d="M261 268h-137q-15 -12 -36 -12h-20q-5 0 -9 1q-5 -1 -11 -1q-53 0 -60 64v220q0 49 40 148q4 91 32 100q4 61 16 72l38 107q36 88 68 144l48 84q36 45 36 72q11 25 18 43q42 117 73 117q10 4 21 8q36 0 48 -35q14 -14 14 -36q0 -108 4 -608q-7 -212 -20 -212v-44
q-8 -41 -12 -100q-4 0 -12 -16v-8q77 -10 94 -16q24 -20 24 -44q-10 -48 -56 -48h-62v-20q0 -92 -40 -164q-8 -112 -52 -112q-7 -4 -16 -4q-48 10 -48 56v164q0 28 16 44q1 19 1 36zM314 996q-10 -21 -20 -21q-5 -48 -12 -60l-42 -123q-4 0 -16 -24q-18 -120 -28 -120
q-8 -61 -24 -104q-36 -49 -36 -96q-26 -49 -40 -83q10 2 20 3q29 12 60 12h88v200q0 10 12 48q0 108 20 152q16 37 16 180v16q0 9 2 20z" />
    <glyph glyph-name="five" unicode="5" 
d="M224 959q4 1 8 1h100q10 0 48 -12q104 -30 104 -112q32 -43 32 -80q32 -32 32 -156q-36 -255 -36 -276q0 -24 -68 -144q-21 -59 -40 -88q-109 -100 -160 -100h-80q-68 0 -88 92q-37 51 -52 112q-17 0 -28 136v56q0 57 104 88q52 -10 52 -48q-3 -28 -12 -28q4 -153 4 -224
q0 -11 12 -20q22 -62 28 -64h44l44 20q8 6 34 124q52 138 52 208l30 192q0 21 -32 144v28q0 7 -48 52h-24q0 -12 -16 -20q-24 0 -24 -80q-11 -38 -18 -66q2 -8 2 -18v-16q0 -51 -100 -76q-72 0 -88 60q1 12 3 22q-2 26 -11 106v16q12 91 12 156v92q16 74 16 176v8
q45 184 76 184q59 24 132 24q42 28 92 28h116q56 -6 56 -52q-10 -48 -56 -48h-28q-24 -20 -88 -28q0 -12 -60 -20q-27 -20 -52 -52q-24 -11 -24 -16v-281z" />
    <glyph glyph-name="six" unicode="6" 
d="M347 426q-3 10 -3 22v60q-8 136 -96 136q-69 0 -80 -24q0 -6 -4 -10q-8 -44 -8 -102v-192q0 -21 32 -144v-28q0 -7 48 -52h24q0 12 16 20q24 0 24 80q11 38 18 66q-2 8 -2 18q16 110 16 120q8 0 15 30zM537 520q-1 -41 -1 -72q0 -18 -16 -40v-36q0 -24 -21 -50
q3 -6 5 -14q-4 -39 -17 -63q-3 -81 -15 -81q0 -85 -72 -116q-55 -56 -88 -56h-100q-10 0 -48 12q-104 30 -104 112q-32 43 -32 80q-32 32 -32 156v436q12 197 12 216q24 83 24 104q0 24 68 144q21 59 40 88q109 100 160 100h80q68 0 88 -92q37 -51 52 -112q17 0 28 -136v-56
q0 -57 -104 -88q-52 10 -52 48q3 28 12 28q-4 153 -4 224q0 11 -12 20q-22 62 -28 64h-44l-44 -20q-8 -6 -64 -124v-328q0 -28 -8 -28q-3 -46 -13 -80h1q0 10 92 12q8 0 132 -48q46 0 112 -80q24 -25 24 -56v-32q0 -19 -11 -36z" />
    <glyph glyph-name="seven" unicode="7" horiz-adv-x="581" 
d="M134 101q-42 -117 -73 -117q-10 -4 -21 -8q-46 0 -52 56v84q0 101 56 160q26 84 44 84q17 76 36 76q5 48 12 60l36 84q9 100 36 100l40 192q4 0 16 24q18 120 28 120q8 61 24 104q36 49 36 96q26 49 40 83q-10 -2 -20 -3q-29 -12 -60 -12h-130q-108 13 -128 20
q-24 20 -24 44q10 48 56 48h278q15 12 36 12h20q5 0 9 -1q5 1 11 1q53 0 60 -64v-220q0 -49 -40 -148q-4 -91 -32 -100q-4 -61 -16 -72v-32q0 -16 -4 -16l-28 -128l-76 -184q-36 -88 -68 -144l-48 -84q-36 -45 -36 -72q-11 -25 -18 -43z" />
    <glyph glyph-name="eight" unicode="8" horiz-adv-x="597" 
d="M246 568q-1 -3 -2 -7q-14 -5 -36 -58q-32 -15 -32 -74q-2 -14 -32 -74q-4 -92 -4 -149v-25q38 -37 40 -71q56 8 62 8q0 41 96 79l12 45q-12 0 -16 58v54q-32 16 -32 66q-8 3 -24 86zM180 704q-6 27 -26 66q-24 0 -28 95q-9 22 -28 46l-56 115q0 18 -24 79v86q0 53 56 174
q66 74 104 74h136q100 -27 100 -58q15 -17 24 -35q12 -15 22 -42q19 0 24 -46v-78q0 -14 -12 -41q0 -171 -36 -227q0 -45 -48 -83q0 -11 -44 -74q10 -38 22 -38q23 -50 40 -66q17 -47 64 -136v-38q44 -61 44 -140q4 0 4 -16v-29q0 -65 -56 -157q-11 -30 -52 -54
q-37 -37 -80 -37q-11 -28 -136 -37h-40q-53 0 -79 64q-33 24 -55 90v161q8 111 24 144q30 37 44 95q51 36 80 132q4 2 12 11zM344 1307q-17 29 -58 29h-28q-64 -50 -68 -50v-66q7 -78 36 -78q40 -62 40 -99q10 0 16 -54q13 -11 20 -92q6 27 42 93q13 72 28 95v66
q-28 89 -28 120v36z" />
    <glyph glyph-name="nine" unicode="9" 
d="M197 1006q3 -10 3 -22v-60q8 -136 96 -136q69 0 80 24q0 6 4 10q8 44 8 102v192q0 21 -32 144v28q0 7 -48 52h-24q0 -12 -16 -20q-24 0 -24 -80q-11 -38 -18 -66q2 -8 2 -18q-16 -110 -16 -120q-8 0 -15 -30zM7 912q1 41 1 72q0 18 16 40v36q0 24 21 50q-3 6 -5 14
q4 39 17 63q3 81 15 81q0 85 72 116q55 56 88 56h100q10 0 48 -12q104 -30 104 -112q32 -43 32 -80q32 -32 32 -156v-436q-12 -197 -12 -216q-24 -83 -24 -104q0 -24 -68 -144q-21 -59 -40 -88q-109 -100 -160 -100h-80q-68 0 -88 92q-37 51 -52 112q-17 0 -28 136v56
q0 57 104 88q52 -10 52 -48q-3 -28 -12 -28q4 -153 4 -224q0 -11 12 -20q22 -62 28 -64h44l44 20q8 6 64 124v328q0 28 8 28q3 46 13 80h-1q0 -10 -92 -12q-8 0 -132 48q-46 0 -112 80q-24 25 -24 56v32q0 19 11 36z" />
    <glyph glyph-name="colon" unicode=":" horiz-adv-x="323" 
d="M114 194q80 -28 80 -48q11 -26 32 -44q16 -24 16 -44q0 -54 -64 -60h-84q-88 16 -88 88q0 4 4 4l-4 20v12q0 72 108 72zM114 1024q80 -28 80 -48q11 -26 32 -44q16 -24 16 -44q0 -54 -64 -60h-84q-88 16 -88 88q0 4 4 4l-4 20v12q0 72 108 72z" />
    <glyph glyph-name="semicolon" unicode=";" horiz-adv-x="325" 
d="M138 -2h-6v-2q4 0 6 2zM25 31q-19 22 -19 55q0 4 4 4l-4 20v12q0 72 108 72q80 -28 80 -48q11 -26 32 -44q16 -24 16 -44q0 -11 -3 -21q1 0 1 -1l4 -24v-20q0 -42 -48 -80q-28 -68 -92 -68q-72 10 -72 72v96q-4 11 -7 19zM114 1024q80 -28 80 -48q11 -26 32 -44
q16 -24 16 -44q0 -54 -64 -60h-84q-88 16 -88 88q0 4 4 4l-4 20v12q0 72 108 72z" />
    <glyph glyph-name="semicolon" unicode="&#x37e;" horiz-adv-x="325" 
d="M138 -2h-6v-2q4 0 6 2zM25 31q-19 22 -19 55q0 4 4 4l-4 20v12q0 72 108 72q80 -28 80 -48q11 -26 32 -44q16 -24 16 -44q0 -11 -3 -21q1 0 1 -1l4 -24v-20q0 -42 -48 -80q-28 -68 -92 -68q-72 10 -72 72v96q-4 11 -7 19zM114 1024q80 -28 80 -48q11 -26 32 -44
q16 -24 16 -44q0 -54 -64 -60h-84q-88 16 -88 88q0 4 4 4l-4 20v12q0 72 108 72z" />
    <glyph glyph-name="less" unicode="&#x3c;" horiz-adv-x="786" 
d="M632 996q38 0 48 -52q0 -39 -56 -60q-33 -55 -120 -100q-41 -42 -68 -48q0 -18 -64 -32q-2 -8 -56 -16q-35 -14 -40 -20q70 -33 120 -52q16 -18 100 -40q15 -11 112 -32q12 -13 60 -32q28 -22 28 -56q0 -38 -52 -48q-46 21 -100 24q-1 7 -88 32q-28 8 -32 8h-52
q-83 9 -112 16q-23 20 -76 32q-17 24 -80 40q-51 28 -76 28q-40 37 -40 76q0 33 64 68q5 10 88 48q67 24 116 48q44 40 120 60q0 7 116 60q92 38 140 48z" />
    <glyph glyph-name="equal" unicode="=" horiz-adv-x="533" 
d="M52 924q8 0 56 -20q67 -20 72 -20h124q10 0 48 -12h48q56 -6 56 -52q-8 -48 -60 -48q-41 0 -92 -20h-28q-77 0 -160 36q-7 0 -44 8q0 -18 -40 -24q-48 10 -48 56v4q18 92 68 92zM52 724q8 0 56 -20q67 -20 72 -20h124q10 0 48 -12h48q56 -6 56 -52q-8 -48 -60 -48
q-41 0 -92 -20h-28q-77 0 -160 36q-7 0 -44 8q0 -18 -40 -24q-48 10 -48 56v4q18 92 68 92z" />
    <glyph glyph-name="greater" unicode="&#x3e;" horiz-adv-x="786" 
d="M52 408q-38 0 -48 52q0 39 56 60q33 55 120 100q41 42 68 48q0 18 64 32q2 8 56 16q35 14 40 20q-70 34 -120 52q-16 18 -100 40q-15 11 -112 32q-11 13 -60 32q-28 22 -28 56q0 38 52 48q46 -21 100 -24q1 -7 88 -32q29 -8 32 -8h52q83 -9 112 -16q23 -20 76 -32
q17 -24 80 -40q51 -28 76 -28q40 -37 40 -76q0 -33 -64 -68q-5 -10 -88 -48q-67 -24 -116 -48q-43 -39 -120 -60q0 -7 -116 -60q-91 -37 -140 -48z" />
    <glyph glyph-name="question" unicode="?" horiz-adv-x="527" 
d="M182 822q14 0 32 81q6 87 20 98q6 53 16 53q0 37 40 98q29 0 36 77v65q-4 0 -68 49h-28q-49 0 -64 -41l4 -8q0 -47 -48 -57q-42 0 -60 53q0 52 40 98q0 31 100 57h136q38 0 104 -73q56 -119 56 -171v-86q-24 -60 -24 -77l-56 -114q-19 -24 -28 -45q-4 -94 -28 -94
q-28 -55 -28 -85q-32 -53 -62 -109l-5 3q-5 -8 -11 -18q0 -29 -52 -72q-8 -25 -8 -32h48q51 20 80 20v-4q16 8 28 8q38 0 48 -52q-30 -88 -92 -88h-44q-152 0 -152 24q-35 0 -56 100v48q0 20 24 56zM236 216q48 0 64 -96v-20q-7 -31 -16 -32l4 -20q-10 -48 -56 -48h-20
q-92 20 -92 76v20q0 44 56 92q19 28 60 28z" />
    <glyph glyph-name="at" unicode="@" horiz-adv-x="732" 
d="M427 1080q-4 29 -11 76q0 10 2 18q-7 28 -18 66q0 80 -24 80q-16 8 -16 20h-124q-48 -45 -48 -52v-28q-32 -123 -32 -144v-192q0 -70 12 -120.5t12 -87.5v-24q16 -39 20 -100q8 0 8 -28v-328q56 -118 64 -124l44 -20h20q0 8 24 8l44 -16h76q17 0 44 4q44 -14 44 -52
q0 -45 -72 -52h-156q-41 0 -62 12q-51 16 -138 96q-19 29 -40 88q-68 120 -68 144q0 21 -24 104q0 19 -12 216v436q0 124 32 156q0 37 32 80q0 82 104 112q38 12 48 12h200q33 0 88 -56q72 -31 72 -116q12 0 15 -81q13 -24 17 -63q-2 -8 -5 -14q21 -26 21 -50v-36
q16 -22 16 -40q0 -482 4 -624q-24 -68 -76 -68h-151q-14 -20 -41 -20q-42 0 -88 64q-13 12 -24 76v96q-16 42 -16 52v88q-24 133 -40 184v96q0 85 80 140q19 0 84 16h28q15 0 31 -4zM456 956q-27 8 -60 28h-16q-6 0 -20 -24v-64q-5 -40 -16 -40l4 -8v-36q16 -40 16 -132
v-128q28 -81 36 -128q14 -11 20 -24l12 8q5 25 44 48v44q0 20 -12 24q-3 346 -8 432z" />
    <glyph glyph-name="A" unicode="A" horiz-adv-x="678" 
d="M292 1424h20q72 -13 72 -68v-28q37 -27 64 -88q8 0 8 -28v-44q11 -41 20 -100q9 -7 24 -84v-196q16 -45 16 -56v-60q16 -33 16 -84q0 -13 20 -88v-192q16 -21 16 -44v-24q0 -10 -16 -52v-32q32 -63 32 -116q0 -38 -52 -48q-52 11 -52 72q-7 0 -16 48q-9 0 -12 36v52
q-16 32 -16 108q0 16 -28 120h-4q0 -22 -120 -60q-28 -4 -88 -40q-20 -104 -32 -136q-28 -47 -44 -52q-8 0 -8 -12q8 -25 8 -32q-25 -92 -72 -92q-48 10 -48 56v12q0 10 12 48v68q16 47 24 144q12 42 16 104q12 4 12 24v68q0 10 12 48q0 131 32 168q0 122 16 136
q0 132 20 172q16 76 16 120q40 68 40 136q10 13 28 80q27 36 64 36zM296 1180v-12q8 -39 8 -44v-188q-8 -98 -28 -132q-20 -95 -20 -120q0 -29 -12 -64v-36q0 -17 -16 -48q0 -21 -4 -80q93 29 116 44l28 4q10 0 28 -12l4 8v8q-20 97 -20 100q-5 0 -16 104q-7 0 -8 28v84
q0 34 -4 108q-14 0 -20 80q-7 17 -24 152q-8 0 -8 16h-4z" />
    <glyph glyph-name="B" unicode="B" horiz-adv-x="554" 
d="M266 1322q-35 -7 -86 -10h-11q-3 -20 -11 -20q4 -40 4 -60v-72q12 -15 12 -36v-329q19 -6 54 -19q33 31 44 22l8 2l32 56q4 21 4 40v84q0 10 12 48v196q-38 83 -44 84q-10 7 -18 14zM50 95q-10 41 -16 121q-24 75 -24 104v108q-8 58 -8 64v628q15 100 24 100
q20 113 36 128q17 84 60 84q29 -6 73 -13t91 13h33q67 -7 113 -88q0 -27 36 -108q12 -20 12 -40v-112q0 -23 -16 -44v-180q0 -44 -24 -92q0 -21 -28 -41q29 -19 29 -41q24 -48 24 -92v-180q16 -21 16 -44v-152q0 -20 -12 -40q-36 -81 -36 -108q-46 -81 -113 -88h-33
q-47 20 -91 13t-73 -13q-41 0 -58 75q-8 7 -14 31q-1 3 -2 7h1zM231 676h-30l-43 -3v-73q0 -5 -8 -44v-362q0 -5 -12 -83l28 5q3 -5 4 -14h11q51 -3 86 -10q8 7 18 14q6 1 44 84v236q-12 38 -12 48v84q0 19 -4 40l-32 56l-8 2q-11 -9 -42 20z" />
    <glyph glyph-name="C" unicode="C" 
d="M487 1187q13 -24 17 -63q-16 -60 -88 -60q-100 25 -100 76v16q0 10 2 18q-7 28 -18 66q0 80 -24 80q-16 8 -16 20h-24q-48 -45 -48 -52v-28q-32 -123 -32 -144v-192q0 -70 12 -120.5t12 -87.5v-24q16 -39 20 -100q8 0 8 -28v-328q56 -118 64 -124l44 -20h44q6 2 28 64
q12 9 12 20q0 71 4 224q-9 0 -12 28q0 38 52 48q104 -31 104 -88v-56q-11 -136 -28 -136q-15 -61 -52 -112q-20 -92 -88 -92h-80q-51 0 -160 100q-19 29 -40 88q-68 120 -68 144q0 21 -24 104q0 19 -12 216v436q0 124 32 156q0 37 32 80q0 82 104 112q38 12 48 12h100
q33 0 88 -56q72 -31 72 -116q12 0 15 -81z" />
    <glyph glyph-name="D" unicode="D" 
d="M47 343q-7 36 -7 117q-32 35 -30 112t14 89v39q-11 0 -20 164q-8 0 -8 28v208q4 46 8 76q-4 10 -4 24q0 51 -4 116q0 94 76 132q66 0 112 8h20q28 -3 42 -16q51 -2 158 -100q19 -29 40 -88q68 -120 68 -144q0 -21 24 -104q0 -19 12 -216v-436q0 -124 -32 -156
q0 -37 -32 -80q0 -82 -104 -112q-31 -10 -43 -12q-15 -20 -45 -20h-8q-11 0 -56 16h-132q-80 0 -80 68q16 38 16 64v48q0 21 12 36v124q1 8 3 15zM142 1181h1q-1 -64 -3 -157l36 -120v-244q8 -13 2.5 -80.5t-14.5 -67.5q12 -21 12 -40v-44q0 -52 36 -100q0 -12 8 -46
q8 -13 8 -34v-20q0 -14 -12 -40q12 -40 12 -96q42 16 52 16q16 0 30 -14q46 43 46 50v28q32 123 32 144v192q0 70 -12 120.5t-12 87.5v24q-16 39 -20 100q-8 0 -8 28v328q-56 118 -64 124l-44 20h-26l-3 13q-2 -1 -3 -1q-10 -20 -52 -28v-132q-1 -6 -2 -11z" />
    <glyph glyph-name="E" unicode="E" horiz-adv-x="501" 
d="M135 1424q6 2 13 4h100q71 -20 76 -20h60q56 -6 56 -52q-10 -48 -56 -48h-132q-68 0 -110 4v-112q8 -39 8 -44v-252q8 -39 8 -44v-76h146q56 0 56 -60q0 -33 -52 -52q0 -14 -80 -28q-35 -13 -54 -19v-329q0 -21 -12 -36v-72q0 -20 -4 -60q8 0 11 -20h11q193 -9 212 -48
q0 -3 4 -24q-10 -48 -56 -48h-24q-77 20 -121 13t-73 -13q-43 0 -60 84q-16 15 -36 128q-9 0 -24 100v668q0 6 8 64v108q0 29 24 104q11 143 32 160q0 19 44 28q15 0 25 -8z" />
    <glyph glyph-name="F" unicode="F" horiz-adv-x="501" 
d="M110 -12q-44 9 -44 28q-21 17 -32 160q-24 75 -24 104v108q-8 58 -8 64v668q15 100 24 100q20 113 36 128q17 84 60 84q29 -6 73 -13t121 13h24q46 0 56 -48q-4 -21 -4 -24q-19 -39 -212 -48h-11q-3 -20 -11 -20q4 -40 4 -60v-72q12 -15 12 -36v-329q19 -6 54 -19
q80 -14 80 -28q52 -19 52 -52q0 -60 -56 -60h-146v-76q0 -5 -8 -44v-362q0 -5 -12.5 -85.5t-27.5 -80.5z" />
    <glyph glyph-name="G" unicode="G" 
d="M499 322q3 -6 5 -14q-4 -39 -17 -63q-3 -81 -15 -81q0 -85 -72 -116q-55 -56 -88 -56h-100q-10 0 -48 12q-104 30 -104 112q-32 43 -32 80q-32 32 -32 156v436q12 197 12 216q24 83 24 104q0 24 68 144q21 59 40 88q109 100 160 100h80q68 0 88 -92q37 -51 52 -112
q17 0 28 -136v-56q0 -57 -104 -88q-52 10 -52 48q3 28 12 28q-4 153 -4 224q0 11 -12 20q-22 62 -28 64h-44l-44 -20q-8 -6 -64 -124v-328q0 -28 -8 -28q-4 -61 -20 -100v-24q0 -37 -12 -87.5t-12 -120.5v-192q0 -21 32 -144v-28q0 -7 48 -52h24q0 12 16 20q24 0 24 80
q11 38 18 66q-2 8 -2 18q16 110 16 120q10 0 20 52q8 0 12 60q12 4 12 24v44q-39 23 -44 48q-25 20 -68 20q-28 23 -28 48q10 48 56 48h172q52 0 76 -68q-4 -142 -4 -224q0 -18 -16 -40v-36q0 -24 -21 -50z" />
    <glyph glyph-name="H" unicode="H" horiz-adv-x="608" 
d="M92 1412q38 0 48 -52q-8 -26 -8 -36v-12q32 -23 32 -108v-416h164v176l24 120q8 64 8 68v160q0 76 60 84q38 0 52 -60q18 0 36 -120v-548q8 -58 8 -64v-540q0 -53 -64 -60q-45 0 -60 88q-8 119 -20 160q0 22 -16 76q0 60 -16 136q0 162 -12 208h-56q-38 -12 -48 -12h-60
v-176q0 -6 -8 -64v-148q0 -10 -12 -48v-132q0 -30 -20 -44l4 -8q-6 -56 -52 -56q-64 0 -64 88q-11 0 -16 56v592q0 5 -8 44v240q24 207 32 244q8 0 8 8v24q0 17 4 32q-4 16 -4 32v8q0 53 64 60z" />
    <glyph glyph-name="I" unicode="I" horiz-adv-x="269" 
d="M110 1432q38 0 48 -52q-16 -62 -16 -72v-108q8 -39 8 -44v-252q8 -39 8 -44v-116q16 -21 16 -44v-404q0 -21 -12 -36v-72q0 -20 -4 -60q9 0 12 -28q-8 -26 -8 -36q9 0 12 -28q0 -38 -52 -48q-43 0 -60 84q-16 15 -36 128q-9 0 -24 100v668q0 6 8 64v108q0 29 24 104
q11 143 32 160q0 19 44 28z" />
    <glyph glyph-name="J" unicode="J" horiz-adv-x="646" 
d="M537 1324q6 -26 11 -60v-620q-12 -197 -12 -216q-24 -83 -24 -104q0 -24 -68 -144q-21 -59 -40 -88q-109 -100 -160 -100h-80q-68 0 -88 92q-37 51 -53 82l-1 1q-25 21 -25 52q15 56 68 56h4q45 0 60 -52q20 -16 20 -40l-4 -14q3 -7 11 -13q22 -62 28 -64h44l44 20
q9 6 64 124v328q0 28 8 28q4 61 20 100v24q0 204 16 204q8 326 8 364q0 23 14 36q-48 -8 -74 -24q-22 -12 -36 -12q-38 0 -48 52q0 52 108 80q23 0 60 8l100 20q5 0 44 8l52 20q8 0 40 8q38 0 48 -52q0 -45 -64 -56l-52 -40q-5 0 -43 -8z" />
    <glyph glyph-name="K" unicode="K" horiz-adv-x="479" 
d="M174 306v-10q0 -21 -12 -36v-72q0 -20 -4 -60q9 0 12 -28q-8 -26 -8 -36q9 0 12 -28q0 -38 -52 -48q-43 0 -60 84q-16 15 -36 128q-9 0 -24 100v668q0 6 8 64v108q0 29 24 104q11 143 32 160q0 19 44 28q38 0 48 -52q-16 -62 -16 -72v-108q8 -39 8 -44v-252q8 -39 8 -44
v-43q1 2 2 3q0 65 83 268l39 84q46 77 76 144q55 84 80 84q41 48 62 48q40 0 49 -48q-30 -116 -35 -120q-13 -54 -45 -100q-28 -30 -28 -40q-41 -71 -41 -104q-28 -56 -46 -112l-52 -92q-48 -144 -73 -144q-22 -59 -45 -84q11 -18 11 -28q13 -60 55 -100q0 -22 66 -96
q56 -99 56 -116q28 -37 28 -68q17 -83 17 -140v-4q-8 -60 -49 -60h-7q-18 0 -66 80q-68 104 -100 200q-12 18 -21 34z" />
    <glyph glyph-name="L" unicode="L" horiz-adv-x="501" 
d="M137.5 1351.5q12.5 -80.5 12.5 -85.5v-362q8 -39 8 -44v-76q35 -153 16 -159v-329q0 -21 -12 -36v-72q0 -20 -4 -60q8 0 11 -20h11q193 -9 212 -48q0 -3 4 -24q-10 -48 -56 -48h-24q-77 20 -121 13t-73 -13q-43 0 -60 84q-16 15 -36 128q-9 0 -24 100v668q0 6 8 64v108
q0 29 24 104q11 143 32 160q0 19 44 28q15 0 27.5 -80.5z" />
    <glyph glyph-name="M" unicode="M" horiz-adv-x="710" 
d="M376 570q-3 -37 -22 -62t-22 -92q-23 -28 -48 -28q-31 6 -42 28v-7q-3 10 -6 23v36q-52 68 -56 112q-4 5 -9 13q2 -75 5 -161l-24 -120q-8 -64 -8 -68v-160q0 -76 -60 -84q-38 0 -52 60q-18 0 -36 120v548q-8 58 -8 64v548q0 21 16 34q16 15 48 18q45 0 60 -88
q0 -5 1 -11q1 -4 3 -9q24 -34 36 -100q6 0 12 -56q22 -26 36 -72q16 0 35 -107q9 -15 9 -37q12 -19 20 -64q9 0 12 -20h4q0 8 36 76q12 40 26 65v18q16 61 22 61q0 68 28 108l40 104q8 5 36 88q-4 0 -4 4q0 31 22 46q12 14 31 14q61 -7 61 -60v-8q0 -16 -4 -32q4 -15 4 -32
v-24q0 -8 7 -8q8 -37 31 -244v-240q-8 -39 -8 -44v-592q-4 -56 -15 -56q0 -88 -61 -88q-44 0 -50 56l4 8q-19 14 -19 44v132q-11 38 -11 48v148q-8 58 -8 64v378q-8 -28 -24 -50v-28q0 -42 -4 -88q-14 -47 -24 -76v-4q0 -22 -20 -46z" />
    <glyph glyph-name="N" unicode="N" horiz-adv-x="608" 
d="M171 593q2 -75 5 -161l-24 -120q-8 -64 -8 -68v-160q0 -76 -60 -84q-38 0 -52 60q-18 0 -36 120v548q-8 58 -8 64v548q0 21 16 34q16 15 48 18q45 0 60 -88q0 -5 1 -11q1 -4 3 -9q24 -34 36 -100q6 0 12 -56q22 -26 36 -72q18 0 40 -136q36 -61 36 -100q8 0 44 -120
q4 -46 4 -88v-28q16 -22 24 -50v378q0 6 8 64v148q0 10 11 48v132q0 30 19 44l-4 8q6 56 50 56q61 0 61 -88q11 0 15 -56v-592q0 -5 8 -44v-240q-23 -207 -31 -244q-7 0 -7 -8v-24q0 -17 -4 -32q4 -16 4 -32v-8q0 -53 -61 -60q-19 0 -31 14q-22 15 -22 46q0 4 4 4
q-28 83 -36 88l-40 104q-28 40 -28 108q-7 0 -28 84v36q-52 68 -56 112q-4 5 -9 13z" />
    <glyph glyph-name="O" unicode="O" 
d="M368 772q-8 13 -2.5 80.5t14.5 67.5q-12 21 -12 40v44q0 52 -36 100q0 24 -32 136q0 80 -24 80q-16 8 -16 20h-24q-48 -45 -48 -52v-28q-32 -123 -32 -144v-192q0 -70 12 -120.5t12 -87.5v-24q16 -39 20 -100q8 0 8 -28v-328q56 -118 64 -124l44 -20h44q6 2 28 64
q12 9 12 20q0 73 4 232l-36 120v244zM520 771v-39q11 0 20 -164q8 0 8 -28v-208q-11 -136 -28 -136q-15 -61 -52 -112q-20 -92 -88 -92h-80q-51 0 -160 100q-19 29 -40 88q-68 120 -68 144q0 21 -24 104q0 19 -12 216v436q0 124 32 156q0 37 32 80q0 82 104 112q38 12 48 12
h100q33 0 88 -56q72 -31 72 -116q16 0 16 -152q16 -18 16 -144q32 -35 30 -112t-14 -89z" />
    <glyph glyph-name="P" unicode="P" horiz-adv-x="554" 
d="M158 636v-76q0 -5 -8 -44v-362q0 -5 -12.5 -85.5t-27.5 -80.5q-44 9 -44 28q-21 17 -32 160q-24 75 -24 104v108q-8 58 -8 64v668q15 100 24 100q20 113 36 128q17 84 60 84q29 -6 73 -13t91 13h33q67 -7 113 -88q0 -27 36 -108q12 -20 12 -40v-152q0 -23 -16 -44v-180
q0 -44 -24 -92q0 -30 -56 -56q-10 0 -52 -25q-5 -4 -10 -6q-1 -1 -2 -1h-2q-7 -3 -17 -4h-143zM266 1322q-35 -7 -86 -10h-11q-3 -20 -11 -20q4 -40 4 -60v-72q12 -15 12 -36v-369q19 -6 54 -19q33 31 44 22l8 2l32 56q4 21 4 40v84q0 10 12 48v236q-38 83 -44 84
q-10 7 -18 14z" />
    <glyph glyph-name="Q" unicode="Q" 
d="M379 -8h-79q-51 0 -160 100q-19 29 -40 88q-68 120 -68 144q0 21 -24 104q0 19 -12 216v436q0 124 32 156q0 37 32 80q0 82 104 112q38 12 48 12h100q33 0 88 -56q72 -31 72 -116q16 0 16 -152q16 -18 16 -144q32 -35 30 -112t-14 -89v-39q11 0 20 -164q8 0 8 -28v-208
q-11 -136 -28 -136q-14 -56 -46 -104q16 -16 38 -36q24 -63 24 -72v-24q-6 -56 -52 -56q-31 0 -72 72q-13 0 -33 16zM301 99q-25 55 -49 129q0 38 52 48q33 0 60 -48q20 -8 36 -31q1 73 4 211l-36 120v244q-8 13 -2.5 80.5t14.5 67.5q-12 21 -12 40v44q0 52 -36 100
q0 24 -32 136q0 80 -24 80q-16 8 -16 20h-24q-48 -45 -48 -52v-28q-32 -123 -32 -144v-192q0 -70 12 -120.5t12 -87.5v-24q16 -39 20 -100q8 0 8 -28v-328q56 -118 64 -124z" />
    <glyph glyph-name="R" unicode="R" horiz-adv-x="554" 
d="M266 1322q-35 -7 -86 -10h-11q-3 -20 -11 -20q4 -40 4 -60v-72q12 -15 12 -36v-369q19 -6 54 -19q33 31 44 22l8 2l32 56q4 21 4 40v84q0 10 12 48v236q-38 83 -44 84q-10 7 -18 14zM171 636h-13v-76q0 -5 -8 -44v-362q0 -5 -12.5 -85.5t-27.5 -80.5q-44 9 -44 28
q-21 17 -32 160q-24 75 -24 104v108q-8 58 -8 64v668q15 100 24 100q20 113 36 128q17 84 60 84q29 -6 73 -13t91 13h33q67 -7 113 -88q0 -27 36 -108q12 -20 12 -40v-152q0 -23 -16 -44v-180q0 -44 -24 -92q0 -30 -56 -56q-8 0 -38 -17q10 -24 18 -59v-36q10 -12 16 -52
q10 0 16 -84q25 0 36 -96q28 -55 28 -88v-132q0 -8 -8 -40q8 -25 8 -32q0 -38 -52 -48q-39 0 -60 68q-36 24 -36 156q-28 63 -44 148q-13 7 -24 72l-24 84q-36 49 -36 96q-9 9 -13 24z" />
    <glyph glyph-name="S" unicode="S" horiz-adv-x="587" 
d="M158 1429h136q100 -28 100 -58q40 -47 40 -100q-18 -54 -60 -54q-48 10 -48 58l4 8q-15 42 -64 42h-28q-64 -50 -68 -50v-66q7 -79 36 -79q40 -62 40 -100q10 0 16 -54q14 -11 20 -100q18 -83 32 -83q13 -92 32 -92q23 -49 40 -66q17 -47 64 -138v-37q44 -63 44 -141
q4 0 4 -17v-29q0 -65 -56 -158q-11 -30 -52 -54q-37 -38 -80 -38q-11 -27 -136 -37h-40q-75 0 -96 129q0 39 52 50q42 0 56 -75h12q58 8 64 8q0 41 96 79l12 46q-12 0 -16 58v54q-32 16 -32 67q-8 3 -24 87q-46 94 -96 179q0 32 -28 87q-24 0 -28 96q-9 22 -28 46l-56 116
q0 17 -24 79v87q0 54 56 175q66 75 104 75z" />
    <glyph glyph-name="T" unicode="T" horiz-adv-x="651" 
d="M222 1432h132q65 0 164 -36q0 -4 4 -4h52q56 -6 56 -52q-10 -48 -56 -48h-68q-15 0 -60 20q-32 0 -32 8q-10 -8 -56 -8q20 -68 28 -148q14 -48 24 -60l12 -64v-172l-16 -92v-184q-9 -83 -16 -112q-8 -13 -8 -24v-28q0 -32 -12 -52q-4 -192 -4 -296v-36q-6 -56 -52 -56
q-48 10 -48 56v44q-32 98 -32 128q-4 0 -12 16q-4 160 -4 240v232q0 18 16 76v532q-14 0 -76 20q-53 -4 -106 -4q-38 0 -48 52q0 32 44 48q101 4 174 4z" />
    <glyph glyph-name="U" unicode="U" horiz-adv-x="635" 
d="M428 1424q72 -12 72 -64v-96q20 -112 20 -212v-320q11 0 20 -164q8 0 8 -28v-208q-11 -136 -28 -136q-15 -61 -52 -112q-20 -92 -88 -92h-80q-51 0 -160 100q-19 29 -40 88q-68 120 -68 144q0 21 -24 104q0 19 -12 216v620q22 144 52 144q0 8 24 8q48 -10 48 -56v-28
q36 -12 36 -48q0 -38 8 -364q16 0 16 -204v-24q16 -39 20 -100q8 0 8 -28v-328q56 -118 64 -124l44 -20h44q6 2 28 64q12 9 12 20q0 73 4 232l-36 120v268q-8 39 -8 44v168q0 24 16 68v176q0 6 8 64v8q0 16 -8 52q0 38 52 48z" />
    <glyph glyph-name="V" unicode="V" horiz-adv-x="678" 
d="M420 1224q28 47 44 52q8 0 8 12q-8 26 -8 32q25 92 72 92q48 -10 48 -56v-12q0 -10 -12 -48v-68q-16 -47 -24 -144q-12 -42 -16 -104q-12 -4 -12 -24v-68q0 -10 -12 -48q0 -131 -32 -168q0 -122 -16 -136q0 -132 -20 -172q-16 -76 -16 -120q-40 -68 -40 -136
q-10 -13 -28 -80q-27 -36 -64 -36h-20q-72 13 -72 68v28q-37 27 -64 88q-8 0 -8 28v44q-11 41 -20 100q-9 7 -24 84v196q-16 45 -16 56v60q-16 33 -16 84q0 14 -20 88v192q-16 21 -16 44v24q0 10 16 52v32q-32 63 -32 116q0 38 52 48q52 -11 52 -72q7 0 16 -48q9 0 12 -36
v-52q16 -32 16 -108q0 -15 28 -120h4q0 21 8 -64l-4 -8v-8q20 -97 20 -100q5 0 16 -104q7 0 8 -28v-84q0 -34 4 -108q14 0 20 -80q7 -17 24 -152q8 0 8 -16h4v12q-8 39 -8 44v188q8 98 28 132q20 96 20 120q0 30 12 64v36q0 17 16 48q0 21 4 80q48 232 60 264z" />
    <glyph glyph-name="W" unicode="W" horiz-adv-x="910" 
d="M384 1074q27 127 36 150q28 47 44 52q8 0 8 12q-8 26 -8 32q25 92 72 92q48 -10 48 -56v-12q0 -10 -12 -48v-68q-16 -47 -24 -144q-12 -42 -16 -104q-12 -4 -12 -24v-68q0 -10 -12 -48q0 -131 -32 -168q0 -122 -16 -136v-11q1 -19 2 -41q14 0 20 -80q7 -17 24 -152
q8 0 8 -16h4v12q-8 39 -8 44v188q8 98 28 132q20 96 20 120q0 30 12 64v36q0 17 16 48q0 21 4 80q48 232 60 264q28 47 44 52q8 0 8 12q-8 26 -8 32q25 92 72 92q48 -10 48 -56v-12q0 -10 -12 -48v-68q-16 -47 -24 -144q-12 -42 -16 -104q-12 -4 -12 -24v-68q0 -10 -12 -48
q0 -131 -32 -168q0 -122 -16 -136q0 -132 -20 -172q-16 -76 -16 -120q-40 -68 -40 -136q-10 -13 -28 -80q-27 -36 -64 -36h-20q-72 13 -72 68v28q-24 18 -44 50q-2 -15 -2 -30q-10 -13 -28 -80q-27 -36 -64 -36h-20q-72 13 -72 68v28q-37 27 -64 88q-8 0 -8 28v44
q-11 41 -20 100q-9 7 -24 84v196q-16 45 -16 56v60q-16 33 -16 84q0 14 -20 88v192q-16 21 -16 44v24q0 10 16 52v32q-32 63 -32 116q0 38 52 48q52 -11 52 -72q7 0 16 -48q9 0 12 -36v-52q16 -32 16 -108q0 -15 28 -120h4q0 21 8 -64l-4 -8v-8q20 -97 20 -100q5 0 16 -104
q7 0 8 -28v-84q0 -34 4 -108q14 0 20 -80q7 -17 24 -152q8 0 8 -16h4v12q-8 39 -8 44v188q8 98 28 132q2 11 4 21q-14 41 -14 51v60q-16 33 -16 84q0 14 -20 88v192q-16 21 -16 44v24q0 10 16 52v32q-32 63 -32 116q0 38 52 48q52 -11 52 -72q7 0 16 -48q9 0 12 -36v-52
q16 -32 16 -108q0 -7 6 -34z" />
    <glyph glyph-name="X" unicode="X" horiz-adv-x="608" 
d="M48 1408q38 0 48 -52q-8 -25 -8 -32q11 -40 48 -108q0 -47 36 -96q16 -43 24 -104q10 0 28 -120q12 -24 16 -24q52 129 84 252q13 10 24 60q47 90 64 148q31 52 44 52q0 7 28 8q48 -10 48 -56v-16q0 -13 -32 -88q-10 -45 -32 -76q-16 -88 -52 -160q0 -45 -64 -200
q-15 0 -28 -72q-7 0 -24 -44q27 0 36 -100l36 -84q7 -12 12 -60q19 0 36 -76q18 0 44 -84q56 -59 56 -160v-84q-6 -56 -52 -56q-80 26 -80 84q0 11 -32 84q0 27 -36 72l-48 84q-32 56 -60 140l-8 4l-28 -80q-40 -72 -40 -120q-6 0 -16 -52q-8 -1 -8 -8v-44q0 -13 -24 -80
q0 -88 -64 -88q-41 0 -56 72l44 120q0 116 48 208q0 63 36 144q0 30 32 112l-48 128q-4 0 -4 16v32q-12 11 -16 72q-28 9 -32 100q-40 100 -40 148v220q7 64 60 64z" />
    <glyph glyph-name="Y" unicode="Y" horiz-adv-x="678" 
d="M273 733q8 49 25 68q30 144 30 160q0 20 12 43v24q0 11 16 32q0 14 4 54q48 155 60 176q28 32 44 35q8 0 8 8q-8 17 -8 21q25 62 72 62q48 -7 48 -37v-9q0 -6 -12 -32v-45q-16 -32 -24 -96q-12 -29 -16 -70q-12 -3 -12 -16v-46q0 -6 -12 -32q0 -87 -32 -112
q0 -82 -16 -91q0 -88 -20 -115q-16 -51 -16 -80q-40 -46 -40 -91q-10 -9 -28 -54l-10 -8q2 -32 2 -70q16 -24 16 -92v-76q-17 -88 -28 -88q-4 -80 -4 -120v-8q-6 -56 -52 -56q-48 10 -48 56v124q-12 15 -12 36v56q-24 0 -24 284v4q-34 18 -60 57q-8 0 -8 19v29
q-11 28 -20 67q-9 5 -24 56v131q-16 31 -16 38v40q-16 22 -16 56q0 10 -20 59v129q-16 14 -16 29v16q0 7 16 35v21q-32 42 -32 78q0 25 52 32q52 -7 52 -48q7 0 16 -32q9 0 12 -24v-6q27 -25 32 -74q8 -26 8 -36v-32l38 -156q0 -13 16 -60q0 -34 16 -112q0 -66 28 -100
q2 -6 3 -11z" />
    <glyph glyph-name="Z" unicode="Z" horiz-adv-x="581" 
d="M354 1283q-48 -3 -78 -3h-158q-104 0 -104 64q0 51 88 64l294 -8h31q10 4 21 8q46 0 52 -56v-84q0 -101 -56 -160q-26 -84 -44 -84q-17 -76 -36 -76q-5 -48 -12 -60l-36 -84q-9 -100 -36 -100l-40 -192q-4 0 -16 -24q-18 -120 -28 -120q-8 -61 -24 -104q-36 -49 -36 -96
q-26 -49 -40 -83q10 2 20 3q29 12 60 12h130q108 -13 128 -20q24 -20 24 -44q-10 -48 -56 -48h-278q-15 -12 -36 -12h-20q-5 0 -9 1q-5 -1 -11 -1q-53 0 -60 64v220q0 49 40 148q4 91 32 100q4 61 16 72v32q0 16 4 16l28 128l76 184q36 88 68 144l48 84q36 45 36 72
q11 25 18 43z" />
    <glyph glyph-name="bracketleft" unicode="[" horiz-adv-x="393" 
d="M249 -92q-44 24 -116 28.5t-93 63.5q-8 200 -8 224q0 21 -24 104q0 19 -12 216v636q0 124 32 156q0 37 2 100q0 82 134 92q38 12 48 12h60q9 0 14 -4q23 4 30 4q44 -14 44 -52q0 -48 -84 -64h-20q-18 0 -31 6q-47 -16 -47 -22v-28q-22 -143 -22 -164v-192
q0 -70 12 -220.5t12 -187.5v-24q16 -39 20 -100q8 0 8 -28v-378q56 -68 64 -74l41 -18q3 1 7 2q56 -12 56 -56q0 -45 -72 -60h-4q-39 4 -51 28z" />
    <glyph glyph-name="backslash" unicode="\" horiz-adv-x="608" 
d="M48 1408q38 0 48 -52q-8 -25 -8 -32q11 -40 48 -108q0 -47 36 -96q16 -43 24 -104q10 0 28 -120q12 -24 16 -24l60 -192q27 0 36 -100l36 -84q7 -12 12 -60q19 0 36 -76q18 0 44 -84q56 -59 56 -160v-84q-6 -56 -52 -56q-80 26 -80 84q0 11 -32 84q0 27 -36 72l-48 84
q-32 56 -68 144l-76 184l-48 128q-4 0 -4 16v32q-12 11 -16 72q-28 9 -32 100q-40 100 -40 148v220q7 64 60 64z" />
    <glyph glyph-name="bracketright" unicode="]" horiz-adv-x="393" 
d="M113 -92q-12 -24 -51 -28h-4q-72 15 -72 60q0 44 56 56q4 -1 7 -2l41 18q8 6 64 74v378q0 28 8 28q4 61 20 100v24q0 37 12 187.5t12 220.5v192q0 21 -22 164v28q0 6 -47 22q-13 -6 -31 -6h-20q-84 16 -84 64q0 38 44 52q7 0 30 -4q5 4 14 4h60q10 0 48 -12
q134 -10 134 -92q2 -63 2 -100q32 -32 32 -156v-636q-12 -197 -12 -216q-24 -83 -24 -104q0 -24 -8 -224q-21 -59 -93 -63.5t-116 -28.5z" />
    <glyph glyph-name="asciicircum" unicode="^" horiz-adv-x="522" 
d="M232 1412h4q79 0 100 -88q48 -55 48 -84q52 -42 52 -100q0 -38 -52 -48q-34 0 -76 60q-25 0 -88 76q-129 -116 -176 -116l-28 -4q-44 14 -44 52q0 18 48 68q40 46 40 56q26 30 48 72q77 56 124 56z" />
    <glyph glyph-name="underscore" unicode="_" horiz-adv-x="533" 
d="M52 154q8 0 56 -20q67 -20 72 -20h124q10 0 48 -12h48q56 -6 56 -52q-8 -48 -60 -48q-41 0 -92 -20h-28q-77 0 -160 36q-7 0 -44 8q0 -18 -40 -24q-48 10 -48 56v4q18 92 68 92z" />
    <glyph glyph-name="grave" unicode="`" horiz-adv-x="387" 
d="M175 1433q7 3 15 7q88 0 88 -72v-12l-3 -20q3 0 3 -4q0 -21 -6 -37q24 -74 39 -145q0 -38 -43 -48q-14 10 -27 1.5t-43 -13.5q-52 0 -75 68q-35 34 -39 71q-21 15 -35 37q-20 10 -49 120q8 48 46 48h118q5 0 11 -1z" />
    <glyph glyph-name="a" unicode="a" horiz-adv-x="678" 
d="M292 1424h20q72 -13 72 -68v-28q37 -27 64 -88q8 0 8 -28v-44q11 -41 20 -100q9 -7 24 -84v-196q16 -45 16 -56v-60q16 -33 16 -84q0 -13 20 -88v-192q16 -21 16 -44v-24q0 -10 -16 -52v-32q32 -63 32 -116q0 -38 -52 -48q-52 11 -52 72q-7 0 -16 48q-9 0 -12 36v52
q-16 32 -16 108q0 16 -28 120h-4q0 -22 -120 -60q-28 -4 -88 -40q-20 -104 -32 -136q-28 -47 -44 -52q-8 0 -8 -12q8 -25 8 -32q-25 -92 -72 -92q-48 10 -48 56v12q0 10 12 48v68q16 47 24 144q12 42 16 104q12 4 12 24v68q0 10 12 48q0 131 32 168q0 122 16 136
q0 132 20 172q16 76 16 120q40 68 40 136q10 13 28 80q27 36 64 36zM296 1180v-12q8 -39 8 -44v-188q-8 -98 -28 -132q-20 -95 -20 -120q0 -29 -12 -64v-36q0 -17 -16 -48q0 -21 -4 -80q93 29 116 44l28 4q10 0 28 -12l4 8v8q-20 97 -20 100q-5 0 -16 104q-7 0 -8 28v84
q0 34 -4 108q-14 0 -20 80q-7 17 -24 152q-8 0 -8 16h-4z" />
    <glyph glyph-name="b" unicode="b" horiz-adv-x="554" 
d="M266 1322q-35 -7 -86 -10h-11q-3 -20 -11 -20q4 -40 4 -60v-72q12 -15 12 -36v-329q19 -6 54 -19q33 31 44 22l8 2l32 56q4 21 4 40v84q0 10 12 48v196q-38 83 -44 84q-10 7 -18 14zM50 95q-10 41 -16 121q-24 75 -24 104v108q-8 58 -8 64v628q15 100 24 100
q20 113 36 128q17 84 60 84q29 -6 73 -13t91 13h33q67 -7 113 -88q0 -27 36 -108q12 -20 12 -40v-112q0 -23 -16 -44v-180q0 -44 -24 -92q0 -21 -28 -41q29 -19 29 -41q24 -48 24 -92v-180q16 -21 16 -44v-152q0 -20 -12 -40q-36 -81 -36 -108q-46 -81 -113 -88h-33
q-47 20 -91 13t-73 -13q-41 0 -58 75q-8 7 -14 31q-1 3 -2 7h1zM231 676h-30l-43 -3v-73q0 -5 -8 -44v-362q0 -5 -12 -83l28 5q3 -5 4 -14h11q51 -3 86 -10q8 7 18 14q6 1 44 84v236q-12 38 -12 48v84q0 19 -4 40l-32 56l-8 2q-11 -9 -42 20z" />
    <glyph glyph-name="c" unicode="c" 
d="M487 1187q13 -24 17 -63q-16 -60 -88 -60q-100 25 -100 76v16q0 10 2 18q-7 28 -18 66q0 80 -24 80q-16 8 -16 20h-24q-48 -45 -48 -52v-28q-32 -123 -32 -144v-192q0 -70 12 -120.5t12 -87.5v-24q16 -39 20 -100q8 0 8 -28v-328q56 -118 64 -124l44 -20h44q6 2 28 64
q12 9 12 20q0 71 4 224q-9 0 -12 28q0 38 52 48q104 -31 104 -88v-56q-11 -136 -28 -136q-15 -61 -52 -112q-20 -92 -88 -92h-80q-51 0 -160 100q-19 29 -40 88q-68 120 -68 144q0 21 -24 104q0 19 -12 216v436q0 124 32 156q0 37 32 80q0 82 104 112q38 12 48 12h100
q33 0 88 -56q72 -31 72 -116q12 0 15 -81z" />
    <glyph glyph-name="d" unicode="d" 
d="M47 343q-7 36 -7 117q-32 35 -30 112t14 89v39q-11 0 -20 164q-8 0 -8 28v208q4 46 8 76q-4 10 -4 24q0 51 -4 116q0 94 76 132q66 0 112 8h20q28 -3 42 -16q51 -2 158 -100q19 -29 40 -88q68 -120 68 -144q0 -21 24 -104q0 -19 12 -216v-436q0 -124 -32 -156
q0 -37 -32 -80q0 -82 -104 -112q-31 -10 -43 -12q-15 -20 -45 -20h-8q-11 0 -56 16h-132q-80 0 -80 68q16 38 16 64v48q0 21 12 36v124q1 8 3 15zM142 1181h1q-1 -64 -3 -157l36 -120v-244q8 -13 2.5 -80.5t-14.5 -67.5q12 -21 12 -40v-44q0 -52 36 -100q0 -12 8 -46
q8 -13 8 -34v-20q0 -14 -12 -40q12 -40 12 -96q42 16 52 16q16 0 30 -14q46 43 46 50v28q32 123 32 144v192q0 70 -12 120.5t-12 87.5v24q-16 39 -20 100q-8 0 -8 28v328q-56 118 -64 124l-44 20h-26l-3 13q-2 -1 -3 -1q-10 -20 -52 -28v-132q-1 -6 -2 -11z" />
    <glyph glyph-name="e" unicode="e" horiz-adv-x="501" 
d="M135 1424q6 2 13 4h100q71 -20 76 -20h60q56 -6 56 -52q-10 -48 -56 -48h-132q-68 0 -110 4v-112q8 -39 8 -44v-252q8 -39 8 -44v-76h146q56 0 56 -60q0 -33 -52 -52q0 -14 -80 -28q-35 -13 -54 -19v-329q0 -21 -12 -36v-72q0 -20 -4 -60q8 0 11 -20h11q193 -9 212 -48
q0 -3 4 -24q-10 -48 -56 -48h-24q-77 20 -121 13t-73 -13q-43 0 -60 84q-16 15 -36 128q-9 0 -24 100v668q0 6 8 64v108q0 29 24 104q11 143 32 160q0 19 44 28q15 0 25 -8z" />
    <glyph glyph-name="f" unicode="f" horiz-adv-x="501" 
d="M110 -12q-44 9 -44 28q-21 17 -32 160q-24 75 -24 104v108q-8 58 -8 64v668q15 100 24 100q20 113 36 128q17 84 60 84q29 -6 73 -13t121 13h24q46 0 56 -48q-4 -21 -4 -24q-19 -39 -212 -48h-11q-3 -20 -11 -20q4 -40 4 -60v-72q12 -15 12 -36v-329q19 -6 54 -19
q80 -14 80 -28q52 -19 52 -52q0 -60 -56 -60h-146v-76q0 -5 -8 -44v-362q0 -5 -12.5 -85.5t-27.5 -80.5z" />
    <glyph glyph-name="g" unicode="g" 
d="M499 322q3 -6 5 -14q-4 -39 -17 -63q-3 -81 -15 -81q0 -85 -72 -116q-55 -56 -88 -56h-100q-10 0 -48 12q-104 30 -104 112q-32 43 -32 80q-32 32 -32 156v436q12 197 12 216q24 83 24 104q0 24 68 144q21 59 40 88q109 100 160 100h80q68 0 88 -92q37 -51 52 -112
q17 0 28 -136v-56q0 -57 -104 -88q-52 10 -52 48q3 28 12 28q-4 153 -4 224q0 11 -12 20q-22 62 -28 64h-44l-44 -20q-8 -6 -64 -124v-328q0 -28 -8 -28q-4 -61 -20 -100v-24q0 -37 -12 -87.5t-12 -120.5v-192q0 -21 32 -144v-28q0 -7 48 -52h24q0 12 16 20q24 0 24 80
q11 38 18 66q-2 8 -2 18q16 110 16 120q10 0 20 52q8 0 12 60q12 4 12 24v44q-39 23 -44 48q-25 20 -68 20q-28 23 -28 48q10 48 56 48h172q52 0 76 -68q-4 -142 -4 -224q0 -18 -16 -40v-36q0 -24 -21 -50z" />
    <glyph glyph-name="h" unicode="h" horiz-adv-x="608" 
d="M92 1412q38 0 48 -52q-8 -26 -8 -36v-12q32 -23 32 -108v-416h164v176l24 120q8 64 8 68v160q0 76 60 84q38 0 52 -60q18 0 36 -120v-548q8 -58 8 -64v-540q0 -53 -64 -60q-45 0 -60 88q-8 119 -20 160q0 22 -16 76q0 60 -16 136q0 162 -12 208h-56q-38 -12 -48 -12h-60
v-176q0 -6 -8 -64v-148q0 -10 -12 -48v-132q0 -30 -20 -44l4 -8q-6 -56 -52 -56q-64 0 -64 88q-11 0 -16 56v592q0 5 -8 44v240q24 207 32 244q8 0 8 8v24q0 17 4 32q-4 16 -4 32v8q0 53 64 60z" />
    <glyph glyph-name="i" unicode="i" horiz-adv-x="269" 
d="M110 1432q38 0 48 -52q-16 -62 -16 -72v-108q8 -39 8 -44v-252q8 -39 8 -44v-116q16 -21 16 -44v-404q0 -21 -12 -36v-72q0 -20 -4 -60q9 0 12 -28q-8 -26 -8 -36q9 0 12 -28q0 -38 -52 -48q-43 0 -60 84q-16 15 -36 128q-9 0 -24 100v668q0 6 8 64v108q0 29 24 104
q11 143 32 160q0 19 44 28z" />
    <glyph glyph-name="j" unicode="j" horiz-adv-x="646" 
d="M537 1324q6 -26 11 -60v-620q-12 -197 -12 -216q-24 -83 -24 -104q0 -24 -68 -144q-21 -59 -40 -88q-109 -100 -160 -100h-80q-68 0 -88 92q-37 51 -53 82l-1 1q-25 21 -25 52q15 56 68 56h4q45 0 60 -52q20 -16 20 -40l-4 -14q3 -7 11 -13q22 -62 28 -64h44l44 20
q9 6 64 124v328q0 28 8 28q4 61 20 100v24q0 204 16 204q8 326 8 364q0 23 14 36q-48 -8 -74 -24q-22 -12 -36 -12q-38 0 -48 52q0 52 108 80q23 0 60 8l100 20q5 0 44 8l52 20q8 0 40 8q38 0 48 -52q0 -45 -64 -56l-52 -40q-5 0 -43 -8z" />
    <glyph glyph-name="k" unicode="k" horiz-adv-x="479" 
d="M174 306v-10q0 -21 -12 -36v-72q0 -20 -4 -60q9 0 12 -28q-8 -26 -8 -36q9 0 12 -28q0 -38 -52 -48q-43 0 -60 84q-16 15 -36 128q-9 0 -24 100v668q0 6 8 64v108q0 29 24 104q11 143 32 160q0 19 44 28q38 0 48 -52q-16 -62 -16 -72v-108q8 -39 8 -44v-252q8 -39 8 -44
v-43q1 2 2 3q0 65 83 268l39 84q46 77 76 144q55 84 80 84q41 48 62 48q40 0 49 -48q-30 -116 -35 -120q-13 -54 -45 -100q-28 -30 -28 -40q-41 -71 -41 -104q-28 -56 -46 -112l-52 -92q-48 -144 -73 -144q-22 -59 -45 -84q11 -18 11 -28q13 -60 55 -100q0 -22 66 -96
q56 -99 56 -116q28 -37 28 -68q17 -83 17 -140v-4q-8 -60 -49 -60h-7q-18 0 -66 80q-68 104 -100 200q-12 18 -21 34z" />
    <glyph glyph-name="l" unicode="l" horiz-adv-x="501" 
d="M137.5 1351.5q12.5 -80.5 12.5 -85.5v-362q8 -39 8 -44v-76q35 -153 16 -159v-329q0 -21 -12 -36v-72q0 -20 -4 -60q8 0 11 -20h11q193 -9 212 -48q0 -3 4 -24q-10 -48 -56 -48h-24q-77 20 -121 13t-73 -13q-43 0 -60 84q-16 15 -36 128q-9 0 -24 100v668q0 6 8 64v108
q0 29 24 104q11 143 32 160q0 19 44 28q15 0 27.5 -80.5z" />
    <glyph glyph-name="m" unicode="m" horiz-adv-x="710" 
d="M376 570q-3 -37 -22 -62t-22 -92q-23 -28 -48 -28q-31 6 -42 28v-7q-3 10 -6 23v36q-52 68 -56 112q-4 5 -9 13q2 -75 5 -161l-24 -120q-8 -64 -8 -68v-160q0 -76 -60 -84q-38 0 -52 60q-18 0 -36 120v548q-8 58 -8 64v548q0 21 16 34q16 15 48 18q45 0 60 -88
q0 -5 1 -11q1 -4 3 -9q24 -34 36 -100q6 0 12 -56q22 -26 36 -72q16 0 35 -107q9 -15 9 -37q12 -19 20 -64q9 0 12 -20h4q0 8 36 76q12 40 26 65v18q16 61 22 61q0 68 28 108l40 104q8 5 36 88q-4 0 -4 4q0 31 22 46q12 14 31 14q61 -7 61 -60v-8q0 -16 -4 -32q4 -15 4 -32
v-24q0 -8 7 -8q8 -37 31 -244v-240q-8 -39 -8 -44v-592q-4 -56 -15 -56q0 -88 -61 -88q-44 0 -50 56l4 8q-19 14 -19 44v132q-11 38 -11 48v148q-8 58 -8 64v378q-8 -28 -24 -50v-28q0 -42 -4 -88q-14 -47 -24 -76v-4q0 -22 -20 -46z" />
    <glyph glyph-name="n" unicode="n" horiz-adv-x="608" 
d="M171 593q2 -75 5 -161l-24 -120q-8 -64 -8 -68v-160q0 -76 -60 -84q-38 0 -52 60q-18 0 -36 120v548q-8 58 -8 64v548q0 21 16 34q16 15 48 18q45 0 60 -88q0 -5 1 -11q1 -4 3 -9q24 -34 36 -100q6 0 12 -56q22 -26 36 -72q18 0 40 -136q36 -61 36 -100q8 0 44 -120
q4 -46 4 -88v-28q16 -22 24 -50v378q0 6 8 64v148q0 10 11 48v132q0 30 19 44l-4 8q6 56 50 56q61 0 61 -88q11 0 15 -56v-592q0 -5 8 -44v-240q-23 -207 -31 -244q-7 0 -7 -8v-24q0 -17 -4 -32q4 -16 4 -32v-8q0 -53 -61 -60q-19 0 -31 14q-22 15 -22 46q0 4 4 4
q-28 83 -36 88l-40 104q-28 40 -28 108q-7 0 -28 84v36q-52 68 -56 112q-4 5 -9 13z" />
    <glyph glyph-name="o" unicode="o" 
d="M368 772q-8 13 -2.5 80.5t14.5 67.5q-12 21 -12 40v44q0 52 -36 100q0 24 -32 136q0 80 -24 80q-16 8 -16 20h-24q-48 -45 -48 -52v-28q-32 -123 -32 -144v-192q0 -70 12 -120.5t12 -87.5v-24q16 -39 20 -100q8 0 8 -28v-328q56 -118 64 -124l44 -20h44q6 2 28 64
q12 9 12 20q0 73 4 232l-36 120v244zM520 771v-39q11 0 20 -164q8 0 8 -28v-208q-11 -136 -28 -136q-15 -61 -52 -112q-20 -92 -88 -92h-80q-51 0 -160 100q-19 29 -40 88q-68 120 -68 144q0 21 -24 104q0 19 -12 216v436q0 124 32 156q0 37 32 80q0 82 104 112q38 12 48 12
h100q33 0 88 -56q72 -31 72 -116q16 0 16 -152q16 -18 16 -144q32 -35 30 -112t-14 -89z" />
    <glyph glyph-name="p" unicode="p" horiz-adv-x="554" 
d="M158 636v-76q0 -5 -8 -44v-362q0 -5 -12.5 -85.5t-27.5 -80.5q-44 9 -44 28q-21 17 -32 160q-24 75 -24 104v108q-8 58 -8 64v668q15 100 24 100q20 113 36 128q17 84 60 84q29 -6 73 -13t91 13h33q67 -7 113 -88q0 -27 36 -108q12 -20 12 -40v-152q0 -23 -16 -44v-180
q0 -44 -24 -92q0 -30 -56 -56q-10 0 -52 -25q-5 -4 -10 -6q-1 -1 -2 -1h-2q-7 -3 -17 -4h-143zM266 1322q-35 -7 -86 -10h-11q-3 -20 -11 -20q4 -40 4 -60v-72q12 -15 12 -36v-369q19 -6 54 -19q33 31 44 22l8 2l32 56q4 21 4 40v84q0 10 12 48v236q-38 83 -44 84
q-10 7 -18 14z" />
    <glyph glyph-name="q" unicode="q" 
d="M379 -8h-79q-51 0 -160 100q-19 29 -40 88q-68 120 -68 144q0 21 -24 104q0 19 -12 216v436q0 124 32 156q0 37 32 80q0 82 104 112q38 12 48 12h100q33 0 88 -56q72 -31 72 -116q16 0 16 -152q16 -18 16 -144q32 -35 30 -112t-14 -89v-39q11 0 20 -164q8 0 8 -28v-208
q-11 -136 -28 -136q-14 -56 -46 -104q16 -16 38 -36q24 -63 24 -72v-24q-6 -56 -52 -56q-31 0 -72 72q-13 0 -33 16zM301 99q-25 55 -49 129q0 38 52 48q33 0 60 -48q20 -8 36 -31q1 73 4 211l-36 120v244q-8 13 -2.5 80.5t14.5 67.5q-12 21 -12 40v44q0 52 -36 100
q0 24 -32 136q0 80 -24 80q-16 8 -16 20h-24q-48 -45 -48 -52v-28q-32 -123 -32 -144v-192q0 -70 12 -120.5t12 -87.5v-24q16 -39 20 -100q8 0 8 -28v-328q56 -118 64 -124z" />
    <glyph glyph-name="r" unicode="r" horiz-adv-x="554" 
d="M266 1322q-35 -7 -86 -10h-11q-3 -20 -11 -20q4 -40 4 -60v-72q12 -15 12 -36v-369q19 -6 54 -19q33 31 44 22l8 2l32 56q4 21 4 40v84q0 10 12 48v236q-38 83 -44 84q-10 7 -18 14zM171 636h-13v-76q0 -5 -8 -44v-362q0 -5 -12.5 -85.5t-27.5 -80.5q-44 9 -44 28
q-21 17 -32 160q-24 75 -24 104v108q-8 58 -8 64v668q15 100 24 100q20 113 36 128q17 84 60 84q29 -6 73 -13t91 13h33q67 -7 113 -88q0 -27 36 -108q12 -20 12 -40v-152q0 -23 -16 -44v-180q0 -44 -24 -92q0 -30 -56 -56q-8 0 -38 -17q10 -24 18 -59v-36q10 -12 16 -52
q10 0 16 -84q25 0 36 -96q28 -55 28 -88v-132q0 -8 -8 -40q8 -25 8 -32q0 -38 -52 -48q-39 0 -60 68q-36 24 -36 156q-28 63 -44 148q-13 7 -24 72l-24 84q-36 49 -36 96q-9 9 -13 24z" />
    <glyph glyph-name="s" unicode="s" horiz-adv-x="587" 
d="M158 1429h136q100 -28 100 -58q40 -47 40 -100q-18 -54 -60 -54q-48 10 -48 58l4 8q-15 42 -64 42h-28q-64 -50 -68 -50v-66q7 -79 36 -79q40 -62 40 -100q10 0 16 -54q14 -11 20 -100q18 -83 32 -83q13 -92 32 -92q23 -49 40 -66q17 -47 64 -138v-37q44 -63 44 -141
q4 0 4 -17v-29q0 -65 -56 -158q-11 -30 -52 -54q-37 -38 -80 -38q-11 -27 -136 -37h-40q-75 0 -96 129q0 39 52 50q42 0 56 -75h12q58 8 64 8q0 41 96 79l12 46q-12 0 -16 58v54q-32 16 -32 67q-8 3 -24 87q-46 94 -96 179q0 32 -28 87q-24 0 -28 96q-9 22 -28 46l-56 116
q0 17 -24 79v87q0 54 56 175q66 75 104 75z" />
    <glyph glyph-name="t" unicode="t" horiz-adv-x="651" 
d="M222 1432h132q65 0 164 -36q0 -4 4 -4h52q56 -6 56 -52q-10 -48 -56 -48h-68q-15 0 -60 20q-32 0 -32 8q-10 -8 -56 -8q20 -68 28 -148q14 -48 24 -60l12 -64v-172l-16 -92v-184q-9 -83 -16 -112q-8 -13 -8 -24v-28q0 -32 -12 -52q-4 -192 -4 -296v-36q-6 -56 -52 -56
q-48 10 -48 56v44q-32 98 -32 128q-4 0 -12 16q-4 160 -4 240v232q0 18 16 76v532q-14 0 -76 20q-53 -4 -106 -4q-38 0 -48 52q0 32 44 48q101 4 174 4z" />
    <glyph glyph-name="u" unicode="u" horiz-adv-x="635" 
d="M428 1424q72 -12 72 -64v-96q20 -112 20 -212v-320q11 0 20 -164q8 0 8 -28v-208q-11 -136 -28 -136q-15 -61 -52 -112q-20 -92 -88 -92h-80q-51 0 -160 100q-19 29 -40 88q-68 120 -68 144q0 21 -24 104q0 19 -12 216v620q22 144 52 144q0 8 24 8q48 -10 48 -56v-28
q36 -12 36 -48q0 -38 8 -364q16 0 16 -204v-24q16 -39 20 -100q8 0 8 -28v-328q56 -118 64 -124l44 -20h44q6 2 28 64q12 9 12 20q0 73 4 232l-36 120v268q-8 39 -8 44v168q0 24 16 68v176q0 6 8 64v8q0 16 -8 52q0 38 52 48z" />
    <glyph glyph-name="v" unicode="v" horiz-adv-x="678" 
d="M420 1224q28 47 44 52q8 0 8 12q-8 26 -8 32q25 92 72 92q48 -10 48 -56v-12q0 -10 -12 -48v-68q-16 -47 -24 -144q-12 -42 -16 -104q-12 -4 -12 -24v-68q0 -10 -12 -48q0 -131 -32 -168q0 -122 -16 -136q0 -132 -20 -172q-16 -76 -16 -120q-40 -68 -40 -136
q-10 -13 -28 -80q-27 -36 -64 -36h-20q-72 13 -72 68v28q-37 27 -64 88q-8 0 -8 28v44q-11 41 -20 100q-9 7 -24 84v196q-16 45 -16 56v60q-16 33 -16 84q0 14 -20 88v192q-16 21 -16 44v24q0 10 16 52v32q-32 63 -32 116q0 38 52 48q52 -11 52 -72q7 0 16 -48q9 0 12 -36
v-52q16 -32 16 -108q0 -15 28 -120h4q0 21 8 -64l-4 -8v-8q20 -97 20 -100q5 0 16 -104q7 0 8 -28v-84q0 -34 4 -108q14 0 20 -80q7 -17 24 -152q8 0 8 -16h4v12q-8 39 -8 44v188q8 98 28 132q20 96 20 120q0 30 12 64v36q0 17 16 48q0 21 4 80q48 232 60 264z" />
    <glyph glyph-name="w" unicode="w" horiz-adv-x="910" 
d="M384 1074q27 127 36 150q28 47 44 52q8 0 8 12q-8 26 -8 32q25 92 72 92q48 -10 48 -56v-12q0 -10 -12 -48v-68q-16 -47 -24 -144q-12 -42 -16 -104q-12 -4 -12 -24v-68q0 -10 -12 -48q0 -131 -32 -168q0 -122 -16 -136v-11q1 -19 2 -41q14 0 20 -80q7 -17 24 -152
q8 0 8 -16h4v12q-8 39 -8 44v188q8 98 28 132q20 96 20 120q0 30 12 64v36q0 17 16 48q0 21 4 80q48 232 60 264q28 47 44 52q8 0 8 12q-8 26 -8 32q25 92 72 92q48 -10 48 -56v-12q0 -10 -12 -48v-68q-16 -47 -24 -144q-12 -42 -16 -104q-12 -4 -12 -24v-68q0 -10 -12 -48
q0 -131 -32 -168q0 -122 -16 -136q0 -132 -20 -172q-16 -76 -16 -120q-40 -68 -40 -136q-10 -13 -28 -80q-27 -36 -64 -36h-20q-72 13 -72 68v28q-24 18 -44 50q-2 -15 -2 -30q-10 -13 -28 -80q-27 -36 -64 -36h-20q-72 13 -72 68v28q-37 27 -64 88q-8 0 -8 28v44
q-11 41 -20 100q-9 7 -24 84v196q-16 45 -16 56v60q-16 33 -16 84q0 14 -20 88v192q-16 21 -16 44v24q0 10 16 52v32q-32 63 -32 116q0 38 52 48q52 -11 52 -72q7 0 16 -48q9 0 12 -36v-52q16 -32 16 -108q0 -15 28 -120h4q0 21 8 -64l-4 -8v-8q20 -97 20 -100q5 0 16 -104
q7 0 8 -28v-84q0 -34 4 -108q14 0 20 -80q7 -17 24 -152q8 0 8 -16h4v12q-8 39 -8 44v188q8 98 28 132q2 11 4 21q-14 41 -14 51v60q-16 33 -16 84q0 14 -20 88v192q-16 21 -16 44v24q0 10 16 52v32q-32 63 -32 116q0 38 52 48q52 -11 52 -72q7 0 16 -48q9 0 12 -36v-52
q16 -32 16 -108q0 -7 6 -34z" />
    <glyph glyph-name="x" unicode="x" horiz-adv-x="608" 
d="M48 1408q38 0 48 -52q-8 -25 -8 -32q11 -40 48 -108q0 -47 36 -96q16 -43 24 -104q10 0 28 -120q12 -24 16 -24q52 129 84 252q13 10 24 60q47 90 64 148q31 52 44 52q0 7 28 8q48 -10 48 -56v-16q0 -13 -32 -88q-10 -45 -32 -76q-16 -88 -52 -160q0 -45 -64 -200
q-15 0 -28 -72q-7 0 -24 -44q27 0 36 -100l36 -84q7 -12 12 -60q19 0 36 -76q18 0 44 -84q56 -59 56 -160v-84q-6 -56 -52 -56q-80 26 -80 84q0 11 -32 84q0 27 -36 72l-48 84q-32 56 -60 140l-8 4l-28 -80q-40 -72 -40 -120q-6 0 -16 -52q-8 -1 -8 -8v-44q0 -13 -24 -80
q0 -88 -64 -88q-41 0 -56 72l44 120q0 116 48 208q0 63 36 144q0 30 32 112l-48 128q-4 0 -4 16v32q-12 11 -16 72q-28 9 -32 100q-40 100 -40 148v220q7 64 60 64z" />
    <glyph glyph-name="y" unicode="y" horiz-adv-x="678" 
d="M273 733q8 49 25 68q30 144 30 160q0 20 12 43v24q0 11 16 32q0 14 4 54q48 155 60 176q28 32 44 35q8 0 8 8q-8 17 -8 21q25 62 72 62q48 -7 48 -37v-9q0 -6 -12 -32v-45q-16 -32 -24 -96q-12 -29 -16 -70q-12 -3 -12 -16v-46q0 -6 -12 -32q0 -87 -32 -112
q0 -82 -16 -91q0 -88 -20 -115q-16 -51 -16 -80q-40 -46 -40 -91q-10 -9 -28 -54l-10 -8q2 -32 2 -70q16 -24 16 -92v-76q-17 -88 -28 -88q-4 -80 -4 -120v-8q-6 -56 -52 -56q-48 10 -48 56v124q-12 15 -12 36v56q-24 0 -24 284v4q-34 18 -60 57q-8 0 -8 19v29
q-11 28 -20 67q-9 5 -24 56v131q-16 31 -16 38v40q-16 22 -16 56q0 10 -20 59v129q-16 14 -16 29v16q0 7 16 35v21q-32 42 -32 78q0 25 52 32q52 -7 52 -48q7 0 16 -32q9 0 12 -24v-6q27 -25 32 -74q8 -26 8 -36v-32l38 -156q0 -13 16 -60q0 -34 16 -112q0 -66 28 -100
q2 -6 3 -11z" />
    <glyph glyph-name="z" unicode="z" horiz-adv-x="581" 
d="M354 1283q-48 -3 -78 -3h-158q-104 0 -104 64q0 51 88 64l294 -8h31q10 4 21 8q46 0 52 -56v-84q0 -101 -56 -160q-26 -84 -44 -84q-17 -76 -36 -76q-5 -48 -12 -60l-36 -84q-9 -100 -36 -100l-40 -192q-4 0 -16 -24q-18 -120 -28 -120q-8 -61 -24 -104q-36 -49 -36 -96
q-26 -49 -40 -83q10 2 20 3q29 12 60 12h130q108 -13 128 -20q24 -20 24 -44q-10 -48 -56 -48h-278q-15 -12 -36 -12h-20q-5 0 -9 1q-5 -1 -11 -1q-53 0 -60 64v220q0 49 40 148q4 91 32 100q4 61 16 72v32q0 16 4 16l28 128l76 184q36 88 68 144l48 84q36 45 36 72
q11 25 18 43z" />
    <glyph glyph-name="braceleft" unicode="{" horiz-adv-x="587" 
d="M146 1180q0 124 32 156q0 37 32 80q0 82 104 112q38 12 48 12h60q9 0 14 -4q23 4 30 4q44 -14 44 -52q0 -48 -84 -64h-20q-18 0 -31 6q-37 -36 -37 -42v-28q-32 -123 -32 -144v-192q0 -21 1 -49q3 -10 3 -23v-52q0 -25 -36 -68q0 -17 -44 -44v-12q96 -52 96 -112
q11 0 16 -88q-2 -5 -4 -9q9 -33 12 -75q8 0 8 -28v-328q56 -118 64 -124l41 -18q3 1 7 2q56 -12 56 -56q0 -45 -72 -60h-4q-39 4 -51 28q-44 24 -109 84q-19 29 -40 88q-68 120 -68 144q0 21 -24 104q0 19 -12 216v31h2q-18 40 -18 117q-4 0 -40 32h-36q-56 6 -56 52
q0 43 80 56q24 0 48 64q0 12 20 36v248z" />
    <glyph glyph-name="bar" unicode="|" horiz-adv-x="269" 
d="M110 1532q38 0 48 -52q-16 -62 -16 -72v-108q8 -39 8 -44v-252q8 -39 8 -44v-216q16 -21 16 -44v-504q0 -21 -12 -36v-72q0 -20 -4 -60q9 0 12 -28q-8 -26 -8 -36q9 0 12 -28q0 -38 -52 -48q-43 0 -60 84q-16 15 -36 128q-9 0 -24 100v868q0 6 8 64v108q0 29 24 104
q11 143 32 160q0 19 44 28z" />
    <glyph glyph-name="braceright" unicode="}" horiz-adv-x="587" 
d="M378 1180v-248q20 -24 20 -36q24 -64 48 -64q80 -13 80 -56q0 -46 -56 -52h-36q-36 -32 -40 -32q0 -77 -18 -117h2v-31q-12 -197 -12 -216q-24 -83 -24 -104q0 -24 -68 -144q-21 -59 -40 -88q-65 -60 -109 -84q-12 -24 -51 -28h-4q-72 15 -72 60q0 44 56 56q4 -1 7 -2
l41 18q8 6 64 124v328q0 28 8 28q3 42 12 75q-2 4 -4 9q5 88 16 88q0 60 96 112v12q-44 27 -44 44q-36 43 -36 68v52q0 13 3 23q1 28 1 49v192q0 21 -32 144v28q0 6 -37 42q-13 -6 -31 -6h-20q-84 16 -84 64q0 38 44 52q7 0 30 -4q5 4 14 4h60q10 0 48 -12q104 -30 104 -112
q32 -43 32 -80q32 -32 32 -156z" />
    <glyph glyph-name="asciitilde" unicode="~" horiz-adv-x="678" 
d="M168 832h92q79 0 148 -104l20 -16h16q48 18 48 24q17 96 72 96q48 -8 48 -60q-16 -40 -28 -88q-28 -42 -60 -60q-23 -32 -80 -32h-4q-32 0 -64 20q-59 16 -112 48h-68q-112 -21 -112 -44q-28 -20 -48 -20q-38 0 -48 52q0 21 68 100q18 25 60 48q11 36 52 36z" />
    </font>
</defs>
</svg>
